<?xml version="1.0" standalone="no"?>
<!DOCTYPE svg PUBLIC "-//W3C//DTD SVG 1.1//EN" "http://www.w3.org/Graphics/SVG/1.1/DTD/svg11.dtd" >
<svg xmlns="http://www.w3.org/2000/svg">
<metadata>
Created by FontPrep 20130207 at Thu Jun 11 14:57:20 2015
 By Shane Baldauf
Copyright (c) 2013 by Cyreal (www.cyreal.org, a@cyreal.org). All rights reserved.
</metadata>
<defs>
<font id="bea24e1a5c40ba22b7c1317d297c1d3c" horiz-adv-x='1024' >
  <font-face 
    font-family="Lora-Regular"
    font-weight="400"
    font-stretch="normal"
    units-per-em="2048"
    panose-1="2 0 5 3 0 0 0 2 0 4"
    ascent="1638"
    descent="-410"
    x-height="1024"
    cap-height="1434"
    bbox="-248 -556 2576 1980"
    underline-thickness="102"
    underline-position="-103"
    unicode-range="U+000D-FB02"
  />
<missing-glyph horiz-adv-x="1083" 
d="M272 77h508v870h-508v-870zM102 1024h848v-1024h-848v1024z" />
    <glyph glyph-name=".notdef" horiz-adv-x="1083" 
d="M272 77h508v870h-508v-870zM102 1024h848v-1024h-848v1024z" />
    <glyph glyph-name=".null" horiz-adv-x="539" 
 />
    <glyph glyph-name="glyph2" horiz-adv-x="0" 
 />
    <glyph glyph-name="nonmarkingreturn" unicode="&#xd;" horiz-adv-x="539" 
 />
    <glyph glyph-name="space" unicode=" " horiz-adv-x="539" 
 />
    <glyph glyph-name="exclam" unicode="!" horiz-adv-x="545" 
d="M363.5 1422q30.5 -45 25.5 -106l-80 -845h-76l-80 845q-4 59 28 105t92 46t90.5 -45zM391 98q0 -28 -10 -51.5t-27 -41.5t-38.5 -28t-58 -10t-71.5 38.5t-35 79.5q0 68 36 107.5t73 39.5t59 -10.5t38 -28.5t25 -42.5t9 -52.5z" />
    <glyph glyph-name="quotedbl" unicode="&#x22;" horiz-adv-x="709" 
d="M143 1006l-17 461h160l-17 -461h-126zM417 1006l-17 461h160l-17 -461h-126z" />
    <glyph glyph-name="numbersign" unicode="#" horiz-adv-x="1700" 
d="M579 487h430l112 474h-434zM1631 1083v-2l-31 -120h-340l-107 -474h342l-32 -122h-337l-90 -398h-148l93 398h-429l-90 -398h-147l93 398h-340l33 122h335l112 474h-345l33 122h341l91 384h135l-88 -384h435l91 384h135l-88 -384h343z" />
    <glyph glyph-name="dollar" unicode="$" horiz-adv-x="1083" 
d="M844 1019q-25 369 -326 369q-121 0 -185.5 -71t-64.5 -154t32 -134t84 -92.5t118.5 -77.5t190.5 -101.5t219.5 -160t95.5 -248.5q0 -153 -103.5 -261t-295.5 -121l-1 -280h-106l-2 280q-103 3 -179 37t-104 52l10 -83h-110v433h71q23 -358 375 -358q119 0 195.5 71
t76.5 184q0 173 -149 253t-272 144.5t-217.5 158t-94.5 251.5q0 119 96 235t291 122v239h111l-2 -240q132 -14 227 -86l-8 87h102v-448h-75z" />
    <glyph glyph-name="percent" unicode="%" horiz-adv-x="1782" 
d="M1610 89.5q-100 -120.5 -275 -123.5t-274.5 111.5t-99.5 271.5t112 277.5t277 120.5t262.5 -112.5t97.5 -268.5t-100 -276.5zM1534 328q0 36 -3.5 73.5t-18 98t-59 114t-110.5 53.5q-111 0 -157.5 -86.5t-46.5 -208.5q0 -121 34 -192.5t72.5 -105t96.5 -33.5t95 30.5
t58.5 75.5t30 95t8.5 86zM174 1344q100 119 275 123t273.5 -109.5t98.5 -271.5t-111 -278.5t-275 -120.5t-262.5 112.5t-98.5 268.5q0 157 100 276zM1500 1385l-1162 -1420l-87 72l1156 1430zM296 871.5q46 -104.5 151 -104.5t151.5 87t46.5 202q0 215 -70.5 276.5
t-128.5 61.5t-95.5 -31t-69 -93.5t-31.5 -178.5q0 -115 46 -219.5z" />
    <glyph glyph-name="ampersand" unicode="&#x26;" horiz-adv-x="1423" 
d="M412 1168q0 -165 167 -346q115 75 170 167.5t55 162.5q0 122 -51.5 185t-143.5 63q-136 0 -166.5 -90.5t-30.5 -141.5zM279 397q0 -155 88.5 -239t212.5 -88q224 -10 349 158q-29 25 -216 208t-265 274q-88 -52 -128.5 -142t-40.5 -171zM1023 507q0 211 -154 218v68h358
v-84l-170 7q86 -76 67 -202t-45 -192q40 -36 118 -106t144.5 -109t98.5 -39v-68h-190q-20 0 -84.5 38.5t-170.5 130.5q-159 -202 -441 -202q-200 0 -340 99.5t-140 297.5t124 286.5t198 120.5q-85 106 -120.5 191t-35.5 170q1 157 107 246t266 89t254 -82.5t94 -204.5
q0 -238 -337 -408q39 -42 80.5 -85t73.5 -77q86 -91 226 -220q19 69 19 117z" />
    <glyph glyph-name="quotesingle" unicode="'" horiz-adv-x="426" 
d="M146 1006l-19 461h172l-18 -461h-135z" />
    <glyph glyph-name="parenleft" unicode="(" horiz-adv-x="625" 
d="M280 500q0 -597 309 -1008l-51 -47q-176 163 -320.5 445t-144.5 646t179 644t286 376l51 -47q-309 -412 -309 -1009z" />
    <glyph glyph-name="parenright" unicode=")" horiz-adv-x="625" 
d="M346 501q0 597 -309 1008l51 47q176 -163 320.5 -445t144.5 -646t-179 -644t-286 -376l-51 47q309 412 309 1009z" />
    <glyph glyph-name="asterisk" unicode="*" horiz-adv-x="1065" 
d="M874 1030q-193 -42 -295 -46q78 -63 149 -138t90 -106t19 -65q-1 -34 -27 -53q-45 -33 -81.5 -7.5t-61.5 66.5q-96 163 -135 268q-33 -80 -86 -178q-53 -99 -90.5 -147t-98.5 -5q-29 24 -29 48q0 23 8 52t51 76q124 136 196 189q-81 3 -165 18.5t-112 21.5
q-65 13 -95.5 38t-30.5 46q0 22 7 42q15 43 64 44t107 -26q178 -83 243 -127q-24 81 -37 191t-10.5 172.5t78.5 62.5q93 0 74 -149q-23 -196 -47 -277q54 34 162 87q107 53 133 60t50 6t49.5 -16.5t25.5 -52.5q0 -72 -105 -95z" />
    <glyph glyph-name="plus" unicode="+" horiz-adv-x="1055" 
d="M461 1112h132v-403l391 -2v-115l-391 -2v-422h-132v421l-389 -1v123l389 -2v403z" />
    <glyph glyph-name="comma" unicode="," horiz-adv-x="518" 
d="M242 207q41 0 68 -14.5t45.5 -39.5t28 -59t9.5 -96t-44 -181t-108 -183l-55 41q68 84 84 181t10 144q-57 -25 -101 3.5t-44 84.5q0 57 33 88t74 31z" />
    <glyph glyph-name="hyphen" unicode="-" horiz-adv-x="1001" 
d="M137 727h727v-135l-727 -8v143z" />
    <glyph glyph-name="period" unicode="." horiz-adv-x="504" 
d="M370 98q0 -28 -10 -51.5t-26.5 -41.5t-38 -28t-58 -10t-71.5 38.5t-35 79.5q0 68 36 107.5t73 39.5t58.5 -10.5t37.5 -28.5t25 -42.5t9 -52.5z" />
    <glyph glyph-name="slash" unicode="/" horiz-adv-x="1413" 
d="M1372 1473l-1210 -2029l-119 75l1197 2037z" />
    <glyph glyph-name="zero" unicode="0" horiz-adv-x="1272" 
d="M115 534q0 263 13 352.5t55.5 222.5t162.5 245.5t300 112.5q351 0 432 -277.5t81 -518t-127.5 -472.5t-399.5 -232q-191 0 -354 152t-163 415zM326 756q0 -74 5.5 -154t48 -317.5t269.5 -237.5q109 0 204 126.5t95 503.5q0 555 -123 633.5t-183 78.5t-106.5 -26
t-81.5 -71t-59 -106.5t-39.5 -132t-22.5 -147t-7 -150.5z" />
    <glyph glyph-name="one" unicode="1" horiz-adv-x="745" 
d="M674 0h-522v68q145 5 161.5 92.5t16.5 140.5l-2 967h-4l-246 -159l-41 60l400 298h69l2 -1244q0 -106 -6 -141l172 8v-90z" />
    <glyph glyph-name="two" unicode="2" horiz-adv-x="1100" 
d="M750 1048q0 339 -252 339q-82 0 -148.5 -41t-89.5 -104q37 -41 37 -95q0 -55 -36 -74t-73 -17t-61 34t-24 76t27 97t117.5 128.5t283.5 75.5q293 0 361.5 -134t68.5 -212t-45 -198.5t-357 -378.5q-305 -248 -332 -389l363 -10q75 -2 137.5 -2.5t133.5 18t71 126.5h62
l-13 -287h-887q0 189 91 304t163.5 181t177.5 166t164.5 209t59.5 188z" />
    <glyph glyph-name="three" unicode="3" horiz-adv-x="1141" 
d="M258 184q36 -130 264 -130q134 0 220 80.5t86 235.5q0 350 -364 344q-34 0 -74 -3v92h84q145 0 214 92t69 198q0 294 -242 294q-87 0 -154.5 -46t-85.5 -102q33 -37 33 -87q0 -51 -34 -69.5t-69 -16.5t-57.5 33t-22.5 73t25.5 93.5t112 126.5t280.5 75q283 0 348 -129.5
t65 -202.5t-37.5 -179.5t-297.5 -186.5v-2q194 -20 306 -124.5t112 -263.5q0 -198 -150.5 -305t-360.5 -107t-324 87.5t-114 191.5q0 46 24 78t61 34q59 2 82 -26.5t23 -63.5t-22 -84z" />
    <glyph glyph-name="four" unicode="4" horiz-adv-x="1110" 
d="M648 1175h-4l-484 -647l488 -6v653zM834 223q0 -104 -8 -145l158 6v-84h-516v68h16q139 11 151.5 106.5t12.5 151.5v69h-623v101l740 971h69v-949l207 -2v-121h-207v-172z" />
    <glyph glyph-name="five" unicode="5" horiz-adv-x="1114" 
d="M296 252q0 -28 -22 -65q11 -71 91.5 -108t159.5 -33q145 7 215.5 106t70.5 241q0 404 -317 404q-98 0 -171.5 -27.5t-99.5 -44.5l-57 53l-5 656h532q164 0 183.5 49t19.5 84h57l-12 -271l-686 -14l1 -450q142 57 283 57q249 0 367 -136.5t118 -338.5q0 -201 -146 -324
t-344 -123t-313 89t-115 190q0 46 24 78t61 34t55.5 -7t29.5 -23t15.5 -31t4.5 -45z" />
    <glyph glyph-name="six" unicode="6" horiz-adv-x="1184" 
d="M853 1202q0 30 26 69q-25 74 -93 96.5t-128 22.5t-117.5 -36t-113 -115.5t-86.5 -233t-34 -283.5q88 120 185.5 146.5t189.5 26.5t175 -42.5t155 -138t72 -284.5t-138.5 -326t-341.5 -137q-385 0 -437 272t-52 384t9 194.5t47.5 230.5t163 283.5t337.5 135.5
q166 0 264 -85t98 -175q0 -44 -21.5 -74.5t-56.5 -32.5t-53 6.5t-29 21.5t-16 28.5t-5 45.5zM612 803q-99 0 -185.5 -67.5t-117.5 -158.5q19 -360 119 -445t176 -85q141 0 207 98.5t66 245.5q0 312 -106.5 362t-158.5 50z" />
    <glyph glyph-name="seven" unicode="7" horiz-adv-x="944" 
d="M400 -33q-72 5 -72 85t59.5 226t83.5 208q217 556 338 807l-541 -3q-174 -2 -174 -160h-49v304h858v-140q-192 -391 -294 -807t-124 -470.5t-85 -49.5z" />
    <glyph glyph-name="eight" unicode="8" horiz-adv-x="1151" 
d="M421 950q81 -84 213 -131q186 127 190 294q2 132 -62.5 202t-175.5 72t-178.5 -71.5t-67.5 -177.5t81 -188zM848 302q0 245 -339 388q-156 -114 -194.5 -243t-4 -231t114 -134t144.5 -33q133 -2 206 65t73 188zM707 778q342 -200 342 -454q0 -82 -40 -152t-139.5 -137.5
t-287.5 -67.5t-324.5 82t-136.5 258q0 224 311 421q-283 167 -283 367q0 180 131 276t299.5 96t286.5 -89.5t118 -250.5t-110 -241t-167 -108z" />
    <glyph glyph-name="nine" unicode="9" horiz-adv-x="1184" 
d="M516 45q143 0 251.5 148.5t102.5 514.5q-131 -171 -344 -171q-289 0 -358.5 170.5t-69.5 278.5q0 211 133 346t351 135q391 0 436 -288.5t45 -403.5t-7.5 -200.5t-70 -345t-459.5 -262.5q-183 -2 -277.5 78t-94.5 175q0 44 23 74t57 32q55 2 78 -26t23 -66q0 -37 -27 -79
q35 -110 208 -110zM564 629q99 0 187.5 67.5t116.5 157.5q-19 364 -118.5 449t-173.5 85q-135 0 -205 -103t-70 -247q0 -311 105.5 -360t157.5 -49z" />
    <glyph glyph-name="colon" unicode=":" horiz-adv-x="512" 
d="M376 924q0 -28 -10 -52t-26.5 -42t-38 -28t-58 -10t-71.5 38.5t-35 79.5q0 68 36 107.5t73 39.5t58.5 -10.5t37.5 -28.5t25 -42t9 -52zM376 98q0 -28 -10 -51.5t-26.5 -41.5t-38 -28t-58 -10t-71.5 38.5t-35 79.5q0 68 36 107.5t73 39.5t58.5 -10.5t37.5 -28.5t25 -42.5
t9 -52.5z" />
    <glyph glyph-name="semicolon" unicode=";" horiz-adv-x="539" 
d="M382 924q0 -28 -10 -52t-26.5 -42t-38 -28t-58 -10t-71.5 38.5t-35 79.5q0 68 36 107.5t73 39.5t58.5 -10.5t37.5 -28.5t25 -42t9 -52zM250 207q41 0 68 -14.5t45.5 -39.5t28 -59t9.5 -96t-44 -181t-108 -183l-55 41q68 84 84 181t10 144q-57 -25 -101 3.5t-44 84.5
q0 57 33 88t74 31z" />
    <glyph glyph-name="less" unicode="&#x3c;" horiz-adv-x="1110" 
d="M70 709l912 405v-127l-773 -340l773 -342v-131l-912 397v138z" />
    <glyph glyph-name="equal" unicode="=" horiz-adv-x="1212" 
d="M150 895l912 -4v-119l-912 -4v127zM150 510l912 -4v-119l-912 -4v127z" />
    <glyph glyph-name="greater" unicode="&#x3e;" horiz-adv-x="1108" 
d="M1039 579l-912 -405v127l773 340l-773 342v131l912 -397v-138z" />
    <glyph glyph-name="question" unicode="?" horiz-adv-x="971" 
d="M545.5 -8q-39.5 -45 -95.5 -23t-70.5 56t-14.5 61q0 51 34 87t67 36t53 -9.5t43 -35.5t23 -76.5t-39.5 -95.5zM225 1101q-24 -29 -69 -27t-66.5 33t-21.5 75t28.5 94.5t117.5 120.5t288 70t300 -106t92 -259t-197.5 -297.5t-224 -184t-35.5 -62.5q0 -79 84 -79
q42 0 78 15l24 -72q-62 -37 -166 -37t-131.5 49.5t-27.5 91.5t29 82.5t73 80t169 142.5t132 284q3 192 -87.5 232t-148.5 40q-99 0 -165 -47t-74 -98q23 -38 23 -75t-24 -66z" />
    <glyph glyph-name="at" unicode="@" horiz-adv-x="1630" 
d="M856 -195q-368 0 -561 204t-193 503t147.5 488.5t307 246.5t280.5 57t211 -20t209 -87t203 -221t84 -338t-73 -304.5t-162 -161t-141 -40.5q-111 0 -159.5 52.5t-48.5 129.5t20 184h-4q-98 -301 -188 -328t-128 -27q-88 0 -150 71t-62 199q0 253 128.5 413.5t352.5 160.5
q128 0 221 -26q-8 -70 -36 -280.5t-28 -282.5q0 -122 27.5 -159t68.5 -37t74.5 20.5t65.5 66t54.5 123.5t22.5 218t-84 366t-469 223q-149 3 -262 -63.5t-218.5 -207t-105.5 -409.5q0 -316 175 -480.5t429 -164.5q78 0 209.5 15.5t265.5 174.5l49 -51q-214 -228 -532 -228z
M882 926q-138 0 -214.5 -150t-76.5 -330q0 -103 28 -164t73 -61t81.5 31t87.5 109.5t96.5 240t47.5 305.5q-47 19 -123 19z" />
    <glyph glyph-name="A" unicode="A" horiz-adv-x="1282" 
d="M510 942q-47 -132 -82.5 -232.5t-63.5 -179.5h474l-238 644h-4zM371 0h-383v68q82 0 113 52.5t47.5 99.5t37.5 104l422 1149h49l457 -1166q57 -133 53 -225l140 8v-90h-469v68q172 3 100 194l-72 192l-533 -12q-42 -120 -60 -181q-33 -109 -62 -179l160 8v-90z" />
    <glyph glyph-name="B" unicode="B" 
d="M426 82q48 -4 62 -4h166q151 0 246.5 80.5t95.5 242.5t-97 236t-233 74q-135 0 -233 -6v-463q0 -114 -7 -160zM461.5 1323.5q-28.5 -40.5 -28.5 -158.5v-381l149 4q164 4 236.5 91.5t72.5 218.5q0 78 -30 134t-91 94t-170 38q-110 0 -138.5 -40.5zM517 1438
q178 0 369.5 -43t191.5 -308q-2 -108 -90 -198t-248 -119v-4q218 0 336 -100t118 -275t-135.5 -283t-347.5 -108h-598v68q103 2 121.5 55.5t19 101t0.5 105.5v860q0 116 7 162l-148 -9v91q226 4 404 4z" />
    <glyph glyph-name="C" unicode="C" horiz-adv-x="1432" 
d="M805 1467q225 0 413 -125l-10 110h111v-475h-74q-22 192 -134.5 299t-291.5 107q-223 0 -373.5 -181.5t-150.5 -471.5t159 -473t381 -183t331 89t151 146l53 -43q-119 -164 -273 -231.5t-308 -67.5q-153 0 -281 56.5t-271 209t-143 461.5q0 310 149.5 496.5t296 231.5
t265.5 45z" />
    <glyph glyph-name="D" unicode="D" horiz-adv-x="1526" 
d="M254 1204q0 94 7 148l-148 -9v91l483 2q386 0 611 -181t225 -540q0 -298 -205.5 -506.5t-574.5 -208.5h-539v68q103 4 121.5 55t19 96.5t0.5 99.5v885zM554 78h92q261 0 423 183t162 462q0 459 -244 548t-413 89q-103 0 -121.5 -50.5t-19 -95.5t-0.5 -100v-872
q0 -114 -7 -160q82 -4 128 -4z" />
    <glyph glyph-name="E" unicode="E" 
d="M254 1204q0 94 7 148l-148 -9v91h985l10 -359h-67q0 237 -104 262t-160 25l-189 -3q-106 -6 -130.5 -54t-24.5 -191v-330h384l-15 177h91v-431h-67q0 113 -40 147.5t-144 34.5h-22q-22 0 -187 -7v-469q0 -114 -7 -160l392 6q144 2 219 73.5t75 243.5h70l-12 -399h-1057
v68q126 3 133.5 76t7.5 115v945z" />
    <glyph glyph-name="F" unicode="F" horiz-adv-x="1122" 
d="M254 1204q0 94 7 148l-148 -9v91h950l11 -359h-68q0 242 -112.5 265t-170.5 22l-149 -4q-103 -4 -121.5 -56t-19 -97.5t-0.5 -98.5v-354h356l-15 177h91v-431h-67q0 113 -40 147.5t-144 34.5h-22q-22 0 -159 -7v-429q0 -116 -7 -162l209 8v-90h-522v68q103 4 121.5 55
t19 96.5t0.5 99.5v885z" />
    <glyph glyph-name="G" unicode="G" horiz-adv-x="1559" 
d="M777 1467q269 0 456 -113l-9 98h113v-469h-74q-14 189 -136 295.5t-304 106.5q-221 0 -373.5 -185.5t-152.5 -472.5t153.5 -474t394.5 -187q200 0 351 102v448l-144 -8v90h463v-67q-142 0 -144.5 -115t-2.5 -129v-313h-56q-84 0 -224 -54q-142 -54 -296 -53
q-312 0 -504 193.5t-192 514.5q0 322 150 511t297 235t234 46z" />
    <glyph glyph-name="H" unicode="H" horiz-adv-x="1597" 
d="M254 1204q0 94 7 148l-148 -9v91h461v-68q-102 -4 -121 -55.5t-19.5 -96.5t-0.5 -100v-340h733v430q0 86 6 148l-148 -9v91h461v-68q-102 -4 -121 -55.5t-19.5 -96.5t-0.5 -100v-870q0 -110 -6 -162l147 8v-90h-461v68q104 4 122.5 55t19 96.5t0.5 99.5v374l-733 -9v-440
q0 -116 -7 -162l148 8v-90h-461v68q103 4 121.5 55t19 96.5t0.5 99.5v885z" />
    <glyph glyph-name="I" unicode="I" horiz-adv-x="686" 
d="M433 244q0 -116 -7 -162l148 8v-90h-461v68q103 4 121.5 55t19 96.5t0.5 99.5v885q0 94 7 148l-148 -9v91h461v-68q-102 -4 -121 -55.5t-19.5 -96.5t-0.5 -100v-870z" />
    <glyph glyph-name="J" unicode="J" horiz-adv-x="764" 
d="M367 285v1067l-209 -9v91h545v-68q-134 0 -146 -80t-12 -123v-663q0 -286 -77 -409.5t-256 -123.5q-89 0 -152.5 40t-63.5 107t34 86.5t57 19.5q45 0 66.5 -28t21.5 -57q0 -30 -10 -52q21 -32 66 -32q45 1 68 14t45.5 55t22.5 165z" />
    <glyph glyph-name="K" unicode="K" horiz-adv-x="1364" 
d="M433 244q0 -116 -7 -162l148 8v-90h-461v68q103 4 121.5 55t19 96.5t0.5 99.5v885q0 94 7 148l-148 -9v91h461v-68q-102 -4 -121 -55.5t-19.5 -96.5t-0.5 -100v-336h153l256 404q74 114 146 172l-125 -4v84h440v-68q-140 -11 -203.5 -50t-111 -90.5t-99.5 -135.5
l-200 -320q69 -43 110 -96.5t60 -77.5l229 -305q149 -200 208.5 -211.5t92.5 -11.5v-68h-250q-52 0 -207 201l-245 331q-102 134 -154 166l-100 -2v-452z" />
    <glyph glyph-name="L" unicode="L" horiz-adv-x="1184" 
d="M254 1204q0 94 7 148l-148 -9v91h461v-68q-102 -4 -121 -55.5t-19.5 -96.5t-0.5 -100v-878q0 -114 -7 -160l383 6q198 3 230.5 127t32.5 215h69l-12 -424h-1016v68q103 4 121.5 55t19 96.5t0.5 99.5v885z" />
    <glyph glyph-name="M" unicode="M" horiz-adv-x="1880" 
d="M1745 1434v-68q-118 3 -132 -78.5t-10 -144.5l54 -932q4 -72 4 -128l149 7v-90h-459v68q127 3 133 94t3 149l-53 873q-6 -15 -13 -31.5t-14 -34.5l-461 -1138h-61q-67 150 -226.5 502t-298.5 720l-2 -90q-2 -49 -3.5 -112.5t-4 -135.5t-4.5 -150t-4 -157t-4 -155.5
t-4 -177.5t-7 -142l154 8v-90h-391v68q121 3 130 76.5t11 111.5l45 1095l-147 -5v88h313l512 -1184h4q18 42 42.5 105t38 97t63.5 160t147.5 353t192.5 469h303z" />
    <glyph glyph-name="N" unicode="N" horiz-adv-x="1561" 
d="M117 68q135 0 135 161l2 1123l-137 -9v91h244l872 -1167h2l2 937q0 86 6 148l-147 -9v91h377v-68q-102 -4 -120 -55.5t-17.5 -96.5t0.5 -100l-4 -1147h-99l-889 1195h-3l7 -877q0 -138 -4 -203l148 8v-90h-375v68z" />
    <glyph glyph-name="O" unicode="O" horiz-adv-x="1626" 
d="M94 716q0 88 19 176.5t80 219.5t222 243t394 112t398 -111t247 -284.5t82 -352.5t-103.5 -403.5t-296 -286.5t-318.5 -62t-230 31t-185 84.5t-139.5 126t-96 155.5t-55.5 173.5t-18 178.5zM295 773q0 -95 14 -176.5t60 -207t166.5 -232t291.5 -106.5q239 0 372 191.5
t133 447.5t-144 475.5t-408 219.5q-106 0 -201 -56t-158 -146t-94.5 -202.5t-31.5 -207.5z" />
    <glyph glyph-name="P" unicode="P" horiz-adv-x="1240" 
d="M570 618q178 0 299 104.5t121 278.5q0 356 -424 356q-97 0 -115 -49.5t-18 -60.5v-622q54 -7 137 -7zM572 1437q296 -1 456 -105t161 -314q0 -181 -149 -330t-534 -149h-26q-27 0 -47 1v-296q0 -116 -7 -162l189 10v-92h-502v68q103 4 121.5 55t19 96.5t0.5 99.5v885
q0 94 7 148l-148 -9v91q163 3 459 3z" />
    <glyph glyph-name="Q" unicode="Q" horiz-adv-x="1630" 
d="M295 773q0 -95 14 -176.5t60 -207t166.5 -232t291.5 -106.5q239 0 372 191.5t133 447.5t-144 475.5t-408 219.5q-106 0 -201 -56t-158 -146t-94.5 -202.5t-31.5 -207.5zM281 1235.5q187 231.5 526 231.5q235 0 400 -111t247 -284.5t82 -352.5t-103.5 -404t-389.5 -316
q-26 -8 -53 -14q5 -1 25 -1q63 -2 123.5 -26.5t137.5 -96.5q168 -156 222.5 -198t110.5 -42v-67h-65q-127 0 -192.5 17.5t-144.5 88.5q-78 70 -129 124.5t-119.5 118.5t-149.5 64q-355 6 -535 229t-180 516q0 292 187 523.5z" />
    <glyph glyph-name="R" unicode="R" horiz-adv-x="1286" 
d="M940 1047q0 311 -366 311q-103 0 -121.5 -49.5t-19 -94.5t-0.5 -100v-394q279 -17 393 70.5t114 256.5zM433 244q0 -116 -7 -162l148 8v-90h-461v68q103 4 121.5 55t19 96.5t0.5 99.5v885q0 94 7 148l-148 -9v91q290 5 454 2q305 -6 438.5 -99t133.5 -268
q0 -227 -133.5 -306t-250.5 -103q40 -29 72 -74t70 -105l140 -219q67 -106 115.5 -150t134.5 -44v-68h-258q-82 71 -183 227l-137 219q-14 22 -50.5 84.5t-86.5 109.5q-69 -4 -139 2v-398z" />
    <glyph glyph-name="S" unicode="S" horiz-adv-x="1161" 
d="M991 1449v-449h-74q-17 259 -145.5 322t-205.5 63q-136 0 -205.5 -69.5t-69.5 -155.5t33.5 -137t88.5 -91t125 -73t199 -92.5t231.5 -153.5t102.5 -262q0 -169 -127.5 -276.5t-345.5 -107.5t-371 105l10 -88h-106l-12 436h79q12 -176 123 -271.5t279 -95.5
q126 0 210.5 68t84.5 194q0 175 -157 251t-287 136.5t-229 150.5t-99 253q0 130 94 245.5t314 115.5t364 -106l-8 88h104z" />
    <glyph glyph-name="T" unicode="T" horiz-adv-x="1311" 
d="M907 0h-481v68q101 4 120 56.5t19 63.5v131l3 1038l-212 -1q-185 0 -210 -132t-25 -223h-76l12 433h1194l12 -433h-77q-4 194 -60 276.5t-207 82.5l-173 -1l-3 -1115q0 -110 -6 -162l170 8v-90z" />
    <glyph glyph-name="U" unicode="U" horiz-adv-x="1540" 
d="M202 1114q0 158 8 238l-147 -6v88h460v-68q-90 0 -115.5 -47t-25.5 -115v-516q0 -176 32 -307t125.5 -214t266.5 -83q213 0 316.5 145.5t107.5 399.5l8 575q0 86 6 148l-147 -9v91h381v-68q-103 -4 -122 -55.5t-19.5 -96.5t-0.5 -100l-4 -475q-3 -466 -200 -569
t-356 -103q-316 0 -445 171t-129 560v416z" />
    <glyph glyph-name="V" unicode="V" horiz-adv-x="1337" 
d="M-8 1434h475v-68l-2 -2q-148 -9 -135.5 -89.5t34.5 -136.5t45.5 -113.5t74 -182t130.5 -308t109 -264.5h4q273 770 319 902t70 180l-157 -9v91h415v-68q-91 -4 -128 -37.5t-58 -71t-55.5 -134.5t-86 -239t-95 -261.5t-101.5 -278t-133 -364.5h-57l-465 1089
q-61 138 -73 197t-15 82l-115 -5v91z" />
    <glyph glyph-name="W" unicode="W" horiz-adv-x="2038" 
d="M14 1434h497v-68q-118 -6 -143 -52.5t10 -170.5q81 -266 170.5 -519.5t104.5 -301.5h4q51 174 157.5 498.5t198.5 617.5h66q100 -316 208.5 -633t165.5 -508h5q212 642 269.5 820t88.5 233l-164 -7v91h416v-68q-52 -6 -86 -18.5t-60.5 -44.5t-51 -89t-176.5 -513
t-249 -721h-61l-383 1095l-361 -1095h-59q-383 1143 -411.5 1225.5t-39.5 142.5l-116 -5v91z" />
    <glyph glyph-name="X" unicode="X" horiz-adv-x="1329" 
d="M18 1434h530v-68l-90 -4q-135 -7 -81 -107.5t289 -424.5q300 431 331 469t47 53l-172 -9v91h403v-68q-124 -18 -206 -128.5t-346 -484.5l501 -667l119 4v-90h-502v68q107 -5 119 40.5t-33 108.5l-300 398q-241 -357 -280.5 -416.5t-89.5 -118.5l170 10v-90h-403v68
q123 25 185 109.5t97 135.5l265 381q-89 126 -215.5 303t-164.5 237t-59 114l-114 -5v91z" />
    <glyph glyph-name="Y" unicode="Y" horiz-adv-x="1298" 
d="M-12 1434h528v-68q-133 0 -154 -58.5t46 -164.5q199 -320 291 -447h4q298 568 321.5 603t38.5 51l-162 -7v91h418v-68q-97 -6 -149 -54t-84.5 -96.5t-326.5 -601.5q-4 -370 -2 -425q1 -55 -5 -107l170 8v-90h-481v68q101 4 120 56.5t19 63.5v131l1 234l-355 563
q-93 144 -111 232l-127 -5v91z" />
    <glyph glyph-name="Z" unicode="Z" horiz-adv-x="1249" 
d="M183 1010h-70l12 424h1016v-72l-735 -1116q-78 -112 -140 -170l498 8q222 3 270 126.5t48 209.5h69l-12 -420h-1051v94q393 548 678 1002q120 191 180 262l-522 -8q-183 -9 -212 -131t-29 -209z" />
    <glyph glyph-name="bracketleft" unicode="[" horiz-adv-x="735" 
d="M707 1546v-123l-390 -6l-9 -1810l403 -6v-123h-549l2 2068h543z" />
    <glyph glyph-name="backslash" unicode="\" horiz-adv-x="1413" 
d="M43 1473l132 83l1197 -2037l-119 -75z" />
    <glyph glyph-name="bracketright" unicode="]" horiz-adv-x="735" 
d="M29 -522v123l390 6l9 1810l-403 6v123h549l-2 -2068h-543z" />
    <glyph glyph-name="asciicircum" unicode="^" horiz-adv-x="1686" 
d="M936 1467l627 -573h-181l-545 500l-546 -490h-168l631 563h182z" />
    <glyph glyph-name="underscore" unicode="_" horiz-adv-x="1493" 
d="M1376 -227h-1259v125l1259 -9v-116z" />
    <glyph glyph-name="grave" unicode="`" horiz-adv-x="516" 
d="M137 1405q-44 46 -44 80t18.5 58t60 24t80.5 -56l172 -276l-57 -47z" />
    <glyph glyph-name="a" unicode="a" horiz-adv-x="1057" 
d="M311 815q0 -105 -88 -105q-44 0 -67.5 30t-23.5 76q0 99 114.5 170t288.5 71t255.5 -91t80.5 -289l-2 -460q0 -72 -8 -139l145 8v-86h-293q-10 59 -14 116q-149 -149 -323 -149q-224 0 -265 96t-41 153t27.5 109t95 111t211 98t291.5 37v128q0 129 -38.5 206t-158.5 77
q-157 0 -213 -108q26 -29 26 -59zM424 84q142 0 270 120v297q-250 -11 -341.5 -93.5t-87.5 -182.5q3 -99 65 -120t94 -21z" />
    <glyph glyph-name="b" unicode="b" horiz-adv-x="1192" 
d="M331 322q0 -271 242 -271q148 0 234.5 120t86.5 315q0 331 -117.5 400.5t-191.5 69.5q-149 0 -254 -116v-518zM16 1491q170 0 207 22t49 33h59v-611q122 122 316 122t326 -142.5t132 -386.5t-157.5 -402.5t-362.5 -158.5t-313 125l-49 -92h-72l4 1280q0 84 6 133l-145 -8
v86z" />
    <glyph glyph-name="c" unicode="c" horiz-adv-x="1090" 
d="M621 981q-143 0 -235.5 -115.5t-92.5 -321.5t97.5 -338t247.5 -132t227 69.5t102 106.5l53 -41q-76 -119 -242.5 -204.5t-370 -7t-263.5 225t-60 244.5t17.5 167t69 166t173 177t280.5 80t266 -75t107 -178q0 -44 -24.5 -75.5t-60.5 -32.5q-57 -2 -81 28.5t-24 72.5
t31 74q-43 110 -217 110z" />
    <glyph glyph-name="d" unicode="d" horiz-adv-x="1225" 
d="M297 502q0 -83 22.5 -168.5t83 -175.5t199.5 -90q104 0 165 52.5t84 81.5q-1 25 -1 32v81l1 590q-92 71 -236 71t-231 -125t-87 -349zM713 1491q170 0 206 22t48 33h59v-1329q0 -72 -8 -139l145 8v-86h-293q-9 51 -13 107q-129 -140 -325 -140t-321 140.5t-125 383.5
q0 242 148.5 404t377.5 162q135 0 239 -57l1 280q0 84 6 133l-145 -8v86z" />
    <glyph glyph-name="e" unicode="e" horiz-adv-x="1110" 
d="M827.5 119.5q98.5 47.5 152.5 122.5l50 -41q-77 -117 -201 -175.5t-237 -58.5q-224 0 -365 150t-141 382q0 233 145.5 395.5t370.5 162.5q179 0 297.5 -116.5t118.5 -336.5l-721 -12q-3 -376 122.5 -448t217.5 -72t190.5 47.5zM604 977q-254 0 -301 -299h522
q0 197 -80.5 248t-140.5 51z" />
    <glyph glyph-name="f" unicode="f" horiz-adv-x="692" 
d="M564 1483q-168 0 -168 -244v-215h276v-80l-276 -5l2 -722q0 -94 -9 -139l129 6v-84h-417v61q84 0 102 54.5t18 195.5l-2 624l-168 -3v92h168v43q0 360 134 424.5t225 64.5t160 -39.5t69 -111.5q0 -41 -23.5 -67t-55.5 -26q-50 0 -72 27t-22 55.5t11 52.5q-27 36 -81 36z
" />
    <glyph glyph-name="g" unicode="g" horiz-adv-x="1133" 
d="M323 340q-206 96 -206 331q0 73 37.5 148t130.5 156.5t250 81.5t273 -77q30 87 99.5 143.5t135.5 56.5q123 0 123 -102q0 -52 -32 -69t-62 -16t-52 21.5t-28 50.5q-94 -14 -120 -135q110 -101 110 -258q0 -156 -128.5 -268.5t-305.5 -112.5l-137 10q-76 0 -117 -33
t-41.5 -56.5t5.5 -41.5q12 -39 85.5 -54t214.5 -21t234.5 -23.5t158.5 -53t99.5 -92t34.5 -176t-153 -212.5t-349 -93q-259 0 -385 81.5t-126 195.5q0 84 56.5 148t132.5 98q-142 43 -142 161q0 73 57 134t147 77zM546 985q-110 0 -171.5 -81.5t-61.5 -207.5q0 -233 92 -282
t175.5 -49t142.5 77.5t59 202.5q0 227 -89.5 283.5t-146.5 56.5zM233 -254q0 -101 94.5 -161t258.5 -60t266 63.5t102 155.5q0 150 -153.5 168t-268.5 22t-181 15q-118 -77 -118 -203z" />
    <glyph glyph-name="h" unicode="h" horiz-adv-x="1227" 
d="M368 217q0 -81 -10 -139l129 6v-84h-418v61q84 0 103.5 56t19.5 194v969q0 84 6 133l-145 -8v86q170 0 207 22t49 33h59v-624q164 135 339 135t254 -110.5t81 -347.5l2 -382q0 -92 -8 -139l129 6v-84h-418v61q84 0 102.5 56t18.5 194v286q0 177 -56 264.5t-172 87.5
t-182.5 -50t-89.5 -77v-605z" />
    <glyph glyph-name="i" unicode="i" horiz-adv-x="575" 
d="M406 1368q0 -26 -9.5 -47.5t-24.5 -38t-35 -25.5t-53.5 -9t-66 34.5t-32.5 73.5q0 38 9 60.5t24.5 39.5t35.5 26.5t43 9.5t42.5 -9.5t34.5 -26.5t23.5 -39.5t8.5 -48.5zM387 217q0 -92 -8 -139l129 6v-84h-418v61q84 0 102.5 56t18.5 194v467q0 67 8 133l-145 -8v86
q170 0 206 22t48 33h59v-827z" />
    <glyph glyph-name="j" unicode="j" horiz-adv-x="526" 
d="M382 1368q0 -26 -9.5 -47.5t-24.5 -38t-35 -25.5t-53.5 -9t-66 34.5t-32.5 73.5q0 38 9 60.5t24.5 39.5t35.5 26.5t43 9.5t42.5 -9.5t34.5 -26.5t23.5 -39.5t8.5 -48.5zM56 989q174 0 209 22t47 33h59v-1051q0 -275 -107 -411.5t-282 -136.5q-119 0 -140.5 46t-21.5 76
t24.5 59.5t56.5 29.5q52 0 74 -27t22 -46v-13q0 -14 -1 -19q29 -12 63 -12q34 -1 70 33q62 56 62 251l4 955q0 84 6 133l-145 -8v86z" />
    <glyph glyph-name="k" unicode="k" horiz-adv-x="1100" 
d="M192 810q0 554 6 603l-145 -8v86q170 0 206 22t48 33h59v-968h82l250 262q80 83 121 108l-140 -6v82h373v-61q-128 -15 -162 -49l-166 -166l-159 -168q61 -29 127 -111l145 -186q6 -8 20.5 -28t83.5 -107t144 -87v-61h-186q-68 0 -163.5 124.5t-170.5 232t-115 145.5
l-84 -4v-281q0 -92 -8 -139l131 6v-84h-418v61q84 0 100.5 51.5t18.5 97.5t2 600z" />
    <glyph glyph-name="l" unicode="l" horiz-adv-x="557" 
d="M487 0h-418v61q84 0 102.5 56t18.5 194v969q0 84 6 133l-145 -8v86q170 0 207 22t49 33h59l2 -1329q0 -81 -10 -139l129 6v-84z" />
    <glyph glyph-name="m" unicode="m" horiz-adv-x="1831" 
d="M965 919q163 138 363 138q66 0 195.5 -51.5t123.5 -406.5l-2 -382q0 -92 -8 -139l129 6v-84h-418v61q84 0 102.5 56t18.5 194v286q0 177 -56 264.5t-181 87.5t-235 -101q21 -69 21 -149l-4 -482q0 -92 -8 -139l129 6v-84h-418v61q84 0 101 53.5t20 196.5l2 286
q1 176 -51.5 266t-173.5 90q-63 0 -124.5 -27.5t-104.5 -71.5l1 -110v-527q0 -92 -8 -139l129 6v-84h-418v61q84 0 102.5 56t18.5 194v467q0 86 8 133l-145 -8v86q165 0 197.5 22t44.5 33h59q5 -46 8 -109q145 122 301 122q196 0 281 -138z" />
    <glyph glyph-name="n" unicode="n" horiz-adv-x="1243" 
d="M76 989q165 0 197.5 22t44.5 33h59q7 -79 9 -124q108 95 198.5 116t134.5 21q178 0 260 -111.5t82 -346.5v-382q0 -92 -8 -139l129 6v-84h-418v61q84 0 102.5 56t18.5 194v286q-2 177 -58 266.5t-171 89.5t-180.5 -52.5t-87.5 -80.5q1 -18 1 -23v-57l-2 -523
q0 -92 -8 -139l129 6v-84h-418v61q84 0 101 53.5t20 196.5l2 467q0 86 8 133l-145 -8v86z" />
    <glyph glyph-name="o" unicode="o" horiz-adv-x="1198" 
d="M964.5 907.5q149.5 -149.5 149.5 -379.5t-149 -395.5t-367 -165.5t-366 147t-148 381t147.5 398t365.5 164t367.5 -149.5zM369.5 854.5q-76.5 -124.5 -76.5 -319.5t83.5 -340.5t235.5 -145.5t222.5 122.5t70.5 317.5t-77 342.5t-229 147.5q-153 0 -229.5 -124.5z" />
    <glyph glyph-name="p" unicode="p" horiz-adv-x="1223" 
d="M370 129q107 -80 245 -80t224 131t86 326t-77.5 323t-234.5 128q-101 0 -161 -46t-81 -69l1 -14v-44zM368 934q141 123 341 123q66 0 147.5 -35t180.5 -139.5t99 -347.5t-155 -405.5t-367 -162.5q-142 0 -245 67l-1 -339q0 -92 -8 -139l129 6v-84h-418v61q84 0 101 53.5
t20 196.5l4 989q0 86 8 133l-145 -8v86q165 0 197.5 22t43.5 33h60q4 -42 8 -110z" />
    <glyph glyph-name="q" unicode="q" horiz-adv-x="1180" 
d="M614 68q72 0 134 35.5t104 94.5v537q0 129 -54 188t-192 59t-223.5 -122t-85.5 -323.5t86.5 -335t230.5 -133.5zM1149 -522h-418v61q84 0 102.5 56t18.5 194v307q-114 -129 -308 -129t-326 143.5t-132 386.5t151 401.5t375 158.5q63 0 116 -13.5t97.5 -23.5t80.5 -8
t63 32h57l2 -1349q0 -92 -8 -139l129 6v-84z" />
    <glyph glyph-name="r" unicode="r" horiz-adv-x="887" 
d="M510 0h-420v61q84 0 102.5 56t18.5 194v468q0 85 8 132l-145 -6v84h63q107 0 137 22t42 33h59q6 -69 10 -202q83 138 186 176.5t145 38.5q76 0 116.5 -33.5t40.5 -93.5q0 -61 -36.5 -80.5t-62.5 -19.5q-46 0 -74 34t-22 81q-121 3 -192.5 -85.5t-98.5 -139.5l2 -503
q0 -92 -8 -139l129 6v-84z" />
    <glyph glyph-name="s" unicode="s" horiz-adv-x="948" 
d="M169 338q8 -127 96 -209t192 -82t152 29.5t68.5 59.5t20.5 76t-25.5 80.5t-67 61t-95 47.5t-150.5 59.5t-175.5 106.5t-78.5 186q0 117 83 210.5t267 93.5q142 0 255 -88l-5 78h86v-359h-64q-15 194 -105.5 243t-147.5 49q-101 0 -154.5 -45t-53.5 -102q0 -58 25.5 -94
t67.5 -64t96 -50.5t155 -65t177.5 -108t76.5 -197.5t-106 -209.5t-268 -77.5t-294 90l7 -71h-86l-12 352h63z" />
    <glyph glyph-name="t" unicode="t" horiz-adv-x="793" 
d="M725 1024v-80l-345 -4q-1 -133 -1 -156l-1 -112v-172l-1 -130q0 -147 25.5 -198.5t55 -70t74.5 -18.5q114 0 197 123l55 -45q-128 -194 -309 -194q-284 0 -279 378l4 592l-157 -1v88q98 2 166.5 89t101.5 198h70l-1 -287h345z" />
    <glyph glyph-name="u" unicode="u" horiz-adv-x="1223" 
d="M856 123q-156 -156 -354 -156q-154 0 -235 100.5t-81 346.5v364q0 86 8 133l-141 -6v84h64q130 0 190 55h59v-624q0 -269 80.5 -308.5t130.5 -39.5q85 0 158.5 47.5t114.5 110.5v525q0 98 10 156l-147 -6v84h63q131 0 191 55h59l-2 -774q0 -108 -8 -192l147 8v-86h-293
q-11 75 -14 123z" />
    <glyph glyph-name="v" unicode="v" horiz-adv-x="1034" 
d="M12 1024h377v-61q-123 0 -95 -91.5t48 -136.5l157 -360q16 -35 31 -73.5t31 -77.5h2q11 30 23.5 64t24.5 68l163 449q22 62 61 141l-131 -6v84h324v-61q-62 0 -99.5 -58.5t-99.5 -218.5l-268 -692h-82l-293 668q-67 155 -76 210.5t-10 73.5l-88 -6v84z" />
    <glyph glyph-name="w" unicode="w" horiz-adv-x="1640" 
d="M12 1024h434v-61q-124 -5 -109.5 -89t31.5 -133l161 -484q236 700 257 767h84l273 -782q210 609 224.5 645.5t33.5 59.5l-119 -7v84h356v-61q-134 -8 -164 -67t-43 -96l-295 -806h-82l-268 775l-266 -775h-78l-268 786q-45 127 -53 166l-109 -6v84z" />
    <glyph glyph-name="x" unicode="x" horiz-adv-x="1085" 
d="M45 1024h422v-61q-95 -4 -104.5 -44.5t65.5 -142.5l119 -162q256 313 278 334l-141 -8v84h336v-61q-77 -22 -119.5 -60t-302.5 -348l282 -351q56 -71 90 -126l93 6v-84h-396v61q56 0 73 25t-23 76l-216 266q-221 -302 -235.5 -318t-29.5 -32l157 6v-84h-344v61
q59 15 90.5 44.5t308.5 388.5q-252 336 -274 379t-33 72l-96 -5v84z" />
    <glyph glyph-name="y" unicode="y" horiz-adv-x="1081" 
d="M267 -423q0 -15 -3 -25q11 -5 26 -5t43.5 15.5t67.5 82.5t134 332q-347 743 -382.5 827t-45.5 141l-99 -5v84h424v-61q-55 -6 -76 -21t-26 -44.5t6 -77t281 -613.5q213 621 235.5 674.5t40.5 66.5l-141 -8v84h321v-61q-72 -28 -103.5 -78.5t-49.5 -93.5t-179 -491
t-200 -548t-103.5 -203.5t-180.5 -103.5t-139.5 46.5t-23.5 71.5q0 46 24.5 76t55.5 30q32 0 48.5 -9t26.5 -23t14 -29.5t4 -30.5z" />
    <glyph glyph-name="z" unicode="z" horiz-adv-x="1047" 
d="M82 0v84q620 798 646 828t42 40l-385 -6q-148 -3 -174 -116.5t-35 -172.5h-63l24 367h803v-66l-577 -759q-53 -70 -107 -115l395 -6q169 -3 203 115t43 180h60l-25 -373h-850z" />
    <glyph glyph-name="braceleft" unicode="{" horiz-adv-x="684" 
d="M61 486h-47v106h47q111 0 154 45.5t43 140.5q0 94 -10.5 179t-10.5 185q0 215 80 314.5t285 99.5h57v-70h-23q-139 0 -190 -74.5t-51 -248.5q0 -35 4 -81l13 -139q11 -108 11 -151q-1 -43 -38 -133t-193 -118v-4q156 -32 193 -124.5t37 -156.5l-27 -401q0 -185 54 -269
t198 -84h12v-57h-57q-203 0 -284 106t-81 332l21 396q0 108 -43.5 157.5t-153.5 49.5z" />
    <glyph glyph-name="bar" unicode="|" horiz-adv-x="473" 
d="M315 1556l-8 -2111h-139l-6 2111h153z" />
    <glyph glyph-name="braceright" unicode="}" horiz-adv-x="684" 
d="M289 1188q0 150 -51 224t-190 74h-23v70h57q205 0 285 -99t80 -323q0 -91 -10.5 -176.5t-10.5 -152.5q0 -122 43 -167.5t154 -45.5h47v-106h-47q-159 0 -178 -77.5t-19 -129.5l21 -396q0 -226 -81 -332t-284 -106h-57v57h12q144 0 198 84t54 269l-27 401q0 119 66 190
t164 91v4q-156 28 -193 118t-38 134t11 150l13 139q4 46 4 106z" />
    <glyph glyph-name="asciitilde" unicode="~" horiz-adv-x="1188" 
d="M583 550q-108 77 -203 77t-154 -39.5t-87 -59.5v129q105 85 162 97t105 12t89 -11.5t73 -28.5t58.5 -37.5t72.5 -49t114 -28.5q129 0 236 98v-129q-94 -107 -244 -107q-114 0 -222 77z" />
    <glyph glyph-name="uni00A0" unicode="&#xa0;" horiz-adv-x="539" 
 />
    <glyph glyph-name="exclamdown" unicode="&#xa1;" horiz-adv-x="498" 
d="M157 -398q-30 45 -26 106l80 845h76l80 -845q4 -59 -18 -91q-42 -60 -102 -60t-90 45zM129 926q0 27 10 51t27 42t39 28q21 10 45 10q49 0 84 -38t35 -80q0 -68 -36 -108q-36 -39 -73 -39t-59 11q-22 10 -38 28t-25 43t-9 52z" />
    <glyph glyph-name="cent" unicode="&#xa2;" horiz-adv-x="1087" 
d="M283 543q0 -206 97.5 -339t247.5 -133t227 70.5t102 107.5l53 -41q-101 -158 -216 -196.5t-164 -44.5l-1 -241h-119l-1 241q-188 23 -311.5 164t-123.5 350t123 375t316 201l-1 217h133l-2 -217q153 -10 248.5 -82t95.5 -157t-36 -102.5t-61 -17.5q-47 0 -70 29.5
t-23 71.5t31 74q-43 110 -217 110q-144 0 -236 -117t-92 -323z" />
    <glyph glyph-name="sterling" unicode="&#xa3;" horiz-adv-x="1122" 
d="M762 1234q0 27 26 54q-11 40 -52.5 70.5t-106.5 30.5q-117 0 -178 -84t-61 -212t49 -356h310v-98h-293q12 -89 12 -153q0 -120 -106 -246q52 8 112 8q61 0 120.5 -19t111 -42.5t95 -42.5t83.5 -19t69.5 31.5t34.5 97.5h64q-6 -201 -83 -244t-123 -43t-86.5 14.5t-80 36.5
t-134.5 84t-195 62q-21 0 -33 -2q-10 -78 -52 -136.5t-86 -58.5q-43 0 -63 23.5t-20 51.5q0 55 49.5 106t128.5 73q53 83 53 184q0 102 -36 234h-163v98h136q-37 147 -37 265q0 217 106 341t271 124t243.5 -75.5t78.5 -137t-21.5 -88.5t-52.5 -27t-46.5 8t-25.5 20t-14 26
t-4 41z" />
    <glyph glyph-name="currency" unicode="&#xa4;" horiz-adv-x="1096" 
d="M559 845q-48 0 -78 -14.5t-62 -48t-51.5 -100t-19.5 -122.5q0 -55 8.5 -113.5t31 -109.5t61.5 -85t124 -34t131 104.5t46 218.5t-33 178t-71.5 95t-86.5 31zM926 521q0 -138 -74 -236l121 -137l-83 -66l-106 132q-98 -76 -235 -76t-236 75l-105 -131l-83 66l120 136
q-73 101 -73 238q0 138 79 245l-126 143l83 66l110 -138q99 80 230 80q130 0 231 -80l111 138l83 -66l-126 -144q79 -107 79 -245z" />
    <glyph glyph-name="yen" unicode="&#xa5;" horiz-adv-x="1444" 
d="M826 334q0 -209 -5 -252l170 8v-90h-481v68q124 3 131.5 75.5t7.5 113.5v75h-261v94h262v127h-262v95h202l-295 468q-93 144 -111 232l-127 -5v91h528v-68q-160 0 -160 -90q0 -52 45 -123t118.5 -190t179.5 -267h4q83 161 124.5 239t73 137.5t51.5 97.5q71 137 111 180
l-162 -7v91h418v-68q-97 -6 -162 -66t-139 -198l-242 -457h249v-88l-267 -2l-1 -130l268 -1v-88z" />
    <glyph glyph-name="brokenbar" unicode="&#xa6;" horiz-adv-x="498" 
d="M325 207l-8 -762h-139l-6 762h153zM325 1556l-8 -767h-139l-6 767h153z" />
    <glyph glyph-name="section" unicode="&#xa7;" horiz-adv-x="1092" 
d="M778 1360q-47 118 -228 118q-112 0 -174 -70.5t-62 -140.5t30 -116.5t79.5 -86.5t112.5 -77t178.5 -104.5t208.5 -168t93 -244.5t-69 -229.5t-112 -121.5q85 -101 85 -226t-93.5 -242.5t-277.5 -117.5t-281.5 80.5t-97.5 181.5q0 67 35.5 86t57.5 19q40 0 60.5 -26.5
t20.5 -63.5q0 -36 -23 -65q4 -51 64.5 -92t136.5 -41q134 0 195.5 67t61.5 137t-30 116.5t-79.5 86.5t-112.5 77t-178.5 105t-208 168t-92.5 243t69 228.5t112 121.5q-86 99 -86 230t91.5 247.5t293.5 116.5q157 0 261.5 -78.5t104.5 -175.5q0 -62 -32 -78.5t-56 -16.5
q-43 0 -63 27t-20 65t25 61zM236 698q0 -184 130 -266t245.5 -147t178.5 -120q71 91 71 220q0 182 -130.5 264t-246 147t-178.5 120q-70 -92 -70 -218z" />
    <glyph glyph-name="dieresis" unicode="&#xa8;" horiz-adv-x="793" 
d="M638.5 1284q-30.5 -36 -61.5 -36t-49.5 9.5t-32.5 26t-22 38.5t-8 60t31 74.5t62 36.5q32 0 50.5 -10t39.5 -35.5t21 -76.5t-30.5 -87zM296.5 1284q-30.5 -36 -61.5 -36t-49.5 9.5t-32.5 26t-22 38.5t-8 60t31 74.5t62 36.5q32 0 50.5 -10t39.5 -35.5t21 -76.5t-30.5 -87
z" />
    <glyph glyph-name="copyright" unicode="&#xa9;" horiz-adv-x="1796" 
d="M1325 418q-152 -209 -447 -209q-75 0 -165.5 38.5t-194.5 144t-104 309.5t133.5 365t368.5 161q148 0 267 -84l-7 74h102v-345h-82q-29 244 -272 244q-127 0 -222.5 -102t-95.5 -277q0 -176 102 -287.5t261 -111.5q113 0 189.5 58t105.5 93zM899 0q300 0 455.5 173
t188 310t32.5 231t-22 184.5t-86 214t-218 223.5t-352 100q-293 0 -481 -215t-188 -509t185.5 -503t485.5 -209zM90 681q0 145 27.5 250t104 244t263 250t416.5 111q351 0 539 -196t229 -355t41 -271t-29 -216.5t-109 -242t-267.5 -247.5t-388.5 -110t-350 61t-254.5 170
t-163.5 258t-58 294z" />
    <glyph glyph-name="ordfeminine" unicode="&#xaa;" horiz-adv-x="838" 
d="M321 779q-109 0 -159.5 43t-50.5 107q0 116 123.5 176.5t277.5 60.5v70q0 80 -24 121t-97 41t-99.5 -30.5t-32.5 -47.5q17 -20 17 -40q0 -34 -17 -54t-48 -20q-32 0 -49.5 21.5t-17.5 53.5q0 70 77.5 128t188.5 58q229 0 229 -245l-2 -228q-2 -123 58 -123q13 0 36 17
l23 -39q-30 -41 -71.5 -53.5t-59.5 -12.5q-88 0 -110 87q-83 -91 -192 -91zM256 956q0 -36 21 -62.5t68 -27.5q86 -2 163 75l3 161q-100 0 -155 -27t-77.5 -55t-22.5 -64z" />
    <glyph glyph-name="guillemotleft" unicode="&#xab;" horiz-adv-x="1085" 
d="M501 546v6l406 399l65 -61l-248 -332v-4l244 -336l-66 -61zM65 540v8l561 575l63 -65l-403 -518v-4l399 -486l-65 -65z" />
    <glyph glyph-name="logicalnot" unicode="&#xac;" horiz-adv-x="1212" 
d="M1062 322h-105l-7 259l-800 -3v127l912 -5v-378z" />
    <glyph glyph-name="uni00AD" unicode="&#xad;" horiz-adv-x="1001" 
d="M137 727h727v-135l-727 -8v143z" />
    <glyph glyph-name="registered" unicode="&#xae;" horiz-adv-x="1798" 
d="M830 744q30 0 59 3.5t80 18.5t97 61.5t46 108.5q0 105 -67 155.5t-156 50.5t-107 -37t-18 -136v-221h2q35 -4 64 -4zM823 658q-38 0 -59 4v-201q0 -67 -4 -105l102 4v-81h-348v69q68 2 83.5 38.5t15.5 125.5v535q0 71 4 98l-103 -10v86q288 9 364 9t235 -39t159 -233
q0 -135 -88.5 -195.5t-160.5 -80.5v-2q42 -20 93 -95q107 -157 153 -201t93 -44v-70h-178q-31 8 -67 50t-84 110t-87 127t-70 104q-15 -3 -53 -3zM230 713q0 -95 20.5 -184.5t82 -210.5t214 -218.5t356.5 -97.5q299 0 485.5 209t186.5 450.5t-108.5 454t-287.5 266.5
t-281 54t-190.5 -27t-162.5 -75.5t-132.5 -116t-99 -148t-62 -171t-21.5 -185.5zM90 680q0 146 27 251.5t105 245.5t263.5 249.5t417.5 109.5t416.5 -110t287.5 -298t103 -471.5t-192.5 -477.5t-350 -237.5t-305.5 -43.5t-296.5 60.5t-254.5 169t-163.5 257.5t-57.5 295z
" />
    <glyph glyph-name="macron" unicode="&#xaf;" horiz-adv-x="727" 
d="M92 1434h543v-115l-543 -8v123z" />
    <glyph glyph-name="degree" unicode="&#xb0;" horiz-adv-x="829" 
d="M191 1374q95 93 231 93t223.5 -91t87.5 -225.5t-95.5 -228.5t-230.5 -94q-136 0 -223.5 91.5t-87.5 226.5t95 228zM278 996.5q53 -63.5 137 -63.5q83 0 136 63.5t53 151t-53.5 152.5t-135.5 65q-83 0 -136.5 -65t-53.5 -152.5t53 -151z" />
    <glyph glyph-name="plusminus" unicode="&#xb1;" horiz-adv-x="1180" 
d="M1045 6h-912v106l912 9v-115zM522 1057h132v-322l391 -2v-115l-391 -2v-340h-132v339l-389 -1v123l389 -2v322z" />
    <glyph glyph-name="twosuperior" unicode="&#xb2;" horiz-adv-x="788" 
d="M258 1274q0 -70 -59 -70q-28 0 -44 19t-16 48q0 68 69.5 132t184.5 64q165 0 205.5 -80.5t40.5 -124.5q0 -85 -47.5 -156t-188.5 -174t-166 -190l173 -4q42 -2 73 -2q66 0 94.5 17t28.5 67h43v-193h-524q0 163 95.5 252.5t141.5 126.5q134 109 134 245q0 61 -33 101.5
t-102 40.5t-93.5 -33t-28.5 -49q19 -17 19 -37z" />
    <glyph glyph-name="threesuperior" unicode="&#xb3;" horiz-adv-x="758" 
d="M222 773q10 -78 138 -78q68 0 109.5 52t41.5 120q0 118 -59.5 147.5t-97.5 29.5t-68 -2v65h24q103 0 136.5 47.5t33.5 86.5q0 73 -31 115.5t-91 42.5q-59 0 -89.5 -26t-36.5 -56q18 -18 18 -36q0 -69 -60 -69q-28 0 -43 20.5t-15 47.5q0 63 65.5 125t176.5 62
q164 0 199.5 -76.5t35.5 -112.5q0 -65 -45.5 -118t-127.5 -74v-2q102 -10 158 -70t56 -155t-77 -164.5t-202 -69.5t-192.5 56t-67.5 127q0 32 17.5 53.5t41.5 21.5t35.5 -6t19 -15.5t10.5 -21.5t3 -29t-16 -38z" />
    <glyph glyph-name="acute" unicode="&#xb4;" horiz-adv-x="516" 
d="M423 1500q0 -50 -44 -95l-230 -217l-57 47l172 276q39 56 80.5 56t60 -24.5t18.5 -42.5z" />
    <glyph glyph-name="mu" unicode="&#xb5;" horiz-adv-x="1257" 
d="M1096 98q37 0 86 35l23 -31q-53 -73 -112.5 -93.5t-94.5 -20.5q-125 0 -157 127q-99 -103 -185.5 -125.5t-130.5 -22.5q-143 0 -232 166q27 -277 63 -399t36 -149q0 -50 -25 -83.5t-69 -33.5q-105 0 -105 177l2 1379h172v-541q0 -198 47.5 -304.5t164.5 -106.5
q156 0 253 146v806h174l-2 -735q0 -191 92 -191z" />
    <glyph glyph-name="paragraph" unicode="&#xb6;" horiz-adv-x="1026" 
d="M68 1133q0 142 87 221.5t204 79.5h464l-4 -1956h-143l4 1872l-179 -6l-5 -1866h-144l5 1359q-192 15 -240.5 117.5t-48.5 178.5z" />
    <glyph glyph-name="periodcentered" unicode="&#xb7;" horiz-adv-x="512" 
d="M376 672q0 -28 -10 -52t-26 -42t-38 -28t-46 -10q-49 0 -84 38t-35 80q0 68 36 108q36 39 73 39q36 -1 58 -11t38 -28t25 -42t9 -52z" />
    <glyph glyph-name="cedilla" unicode="&#xb8;" horiz-adv-x="598" 
d="M506 -240q0 -52 -20 -85t-87 -84.5t-295 -84.5l-12 69q171 30 208.5 78t37.5 78q0 61 -65 61q-50 0 -93 -30l-69 34l59 220h115l-56 -168q59 36 131 36t109 -36t37 -88z" />
    <glyph glyph-name="onesuperior" unicode="&#xb9;" horiz-adv-x="580" 
d="M473 616h-318v58q84 0 92.5 59.5t8.5 91.5v494h-5l-127 -76l-32 58l228 166h51l2 -705q0 -46 -4 -80l104 4v-70z" />
    <glyph glyph-name="ordmasculine" unicode="&#xba;" horiz-adv-x="858" 
d="M668.5 1373q92.5 -94 92.5 -245t-93 -250t-237 -99t-238.5 93t-94.5 241q0 147 96 250.5t239 103.5t235.5 -94zM295.5 1325q-48.5 -73 -48.5 -156q0 -149 49 -233.5t138 -84.5t136.5 70.5t47.5 154.5t-11 137.5t-47.5 119t-126.5 65.5q-89 0 -137.5 -73z" />
    <glyph glyph-name="guillemotright" unicode="&#xbb;" horiz-adv-x="1083" 
d="M584 562v-6l-406 -399l-65 61l248 332v4l-244 336l66 61zM1020 568v-8l-561 -575l-63 65l403 518v4l-399 486l65 65z" />
    <glyph glyph-name="onequarter" unicode="&#xbc;" horiz-adv-x="1563" 
d="M1278 1402l-969 -1435l-77 53l956 1447zM474 616h-318v58q84 0 97 92q4 28 4 59v494h-5l-127 -76l-32 58l228 166h51l2 -705q0 -46 -4 -80l104 4v-70zM1259 643h-2l-248 -347l250 -4v351zM1460 0h-301v59q84 3 97 81q4 24 4 55v20h-347v61l408 566h54v-553h116v-74h-115
v-149l84 4v-70z" />
    <glyph glyph-name="onehalf" unicode="&#xbd;" horiz-adv-x="1642" 
d="M1276 1402l-969 -1435l-77 53l956 1447zM472 616h-318v58q84 0 97 92q4 28 4 59v494h-5l-127 -76l-32 58l228 166h51l2 -705q0 -46 -4 -80l104 4v-70zM1159 648q0 -70 -59 -71q-28 0 -44 19t-16 48q0 68 70 132t184 64q166 0 226 -121q20 -41 20 -85q0 -85 -48 -155
q-48 -71 -188 -174q-141 -103 -166 -190l173 -4q41 -2 73 -2q66 0 94 17t29 67h43v-193h-524q0 164 148 302q44 40 90 77q134 109 133 245q0 62 -33 102t-102 40t-107 -51q-11 -15 -15 -31q19 -16 19 -36z" />
    <glyph glyph-name="threequarters" unicode="&#xbe;" horiz-adv-x="1649" 
d="M1396 1402l-969 -1435l-77 53l956 1447zM183 773q11 -78 139 -78q68 0 109 52t41 120q0 118 -83 159q-35 18 -73 18t-69 -2v65h24q103 0 144 58q26 37 26 76q0 73 -31 116q-31 42 -91 42q-59 0 -89 -26t-37 -56q18 -18 18 -36q1 -69 -59 -69q-28 0 -44 20q-15 20 -15 48
q-1 63 65 125q65 62 177 62q164 0 218 -117q17 -36 17 -72q0 -65 -45 -118t-128 -74v-2q102 -10 158 -70t56 -155t-77 -164q-77 -70 -202 -70t-192 56q-68 56 -68 127q0 32 18 54t41 21q23 0 35 -6q12 -5 20 -15t10 -22q3 -12 3 -29t-16 -38zM1381 643h-2l-248 -347l250 -4
v351zM1582 0h-301v59q84 3 97 81q4 24 4 55v20h-347v61l408 566h54v-553h116v-74h-115v-149l84 4v-70z" />
    <glyph glyph-name="questiondown" unicode="&#xbf;" horiz-adv-x="956" 
d="M409 1022q31 35 65 35q59 0 91 -34q33 -34 33 -73q0 -63 -34 -99t-67 -36t-53 10t-34 26q-31 36 -32 86q0 50 31 85zM738 -77q24 29 69 27t67 -32q21 -30 21 -75q0 -44 -28 -95q-28 -50 -82 -93q-125 -98 -324 -98t-300 106t-92 259t235 327q151 116 187 155q35 39 35 62
q0 79 -84 79q-42 0 -78 -15l-24 72q62 37 166 37t145 -73q14 -26 14 -68t-29 -82t-73 -80q-44 -39 -95 -82q-199 -164 -206 -345q-3 -192 129 -250q49 -21 107 -22q99 0 165 47t74 98q-23 38 -23 75t24 66z" />
    <glyph glyph-name="Agrave" unicode="&#xc0;" horiz-adv-x="1282" 
d="M510 942q-46 -132 -82 -232t-64 -180h474l-238 644h-4zM371 0h-383v68q82 0 124 71q20 34 36 81t38 104l422 1149h49l457 -1166q57 -133 53 -225l140 8v-90h-469v68q172 3 100 194l-72 192l-533 -12q-42 -120 -60 -181q-33 -109 -62 -179l160 8v-90zM336 1739
q-58 35 -65 77t21 66q54 44 128 -20l258 -246l-45 -60z" />
    <glyph glyph-name="Aacute" unicode="&#xc1;" horiz-adv-x="1282" 
d="M510 942q-46 -132 -82 -232t-64 -180h474l-238 644h-4zM371 0h-383v68q82 0 124 71q20 34 36 81t38 104l422 1149h49l457 -1166q57 -133 53 -225l140 8v-90h-469v68q172 3 100 194l-72 192l-533 -12q-42 -120 -60 -181q-33 -109 -62 -179l160 8v-90zM630 1556l-45 60
l258 246q50 44 92 35q42 -8 55 -42q24 -64 -63 -116z" />
    <glyph glyph-name="Acircumflex" unicode="&#xc2;" horiz-adv-x="1282" 
d="M510 942q-46 -132 -82 -232t-64 -180h474l-238 644h-4zM371 0h-383v68q82 0 124 71q20 34 36 81t38 104l422 1149h49l457 -1166q57 -133 53 -225l140 8v-90h-469v68q172 3 100 194l-72 192l-533 -12q-42 -120 -60 -181q-33 -109 -62 -179l160 8v-90zM634 1907h5l376 -289
l-45 -70l-340 181h-4l-348 -179l-41 66z" />
    <glyph glyph-name="Atilde" unicode="&#xc3;" horiz-adv-x="1282" 
d="M510 942q-46 -132 -82 -232t-64 -180h474l-238 644h-4zM371 0h-383v68q82 0 124 71q20 34 36 81t38 104l422 1149h49l457 -1166q57 -133 53 -225l140 8v-90h-469v68q172 3 100 194l-72 192l-533 -12q-42 -120 -60 -181q-33 -109 -62 -179l160 8v-90zM786 1720
q92 0 166 133l66 -32q-80 -230 -244 -230q-92 0 -186 73t-139 73t-79 -33t-73 -90l-70 39q35 88 101 149q66 60 118 61q54 1 86 -9t59 -27q27 -16 51 -35q24 -20 61 -46q38 -26 83 -26z" />
    <glyph glyph-name="Adieresis" unicode="&#xc4;" horiz-adv-x="1282" 
d="M510 942q-46 -132 -82 -232t-64 -180h474l-238 644h-4zM371 0h-383v68q82 0 124 71q20 34 36 81t38 104l422 1149h49l457 -1166q57 -133 53 -225l140 8v-90h-469v68q172 3 100 194l-72 192l-533 -12q-42 -120 -60 -181q-33 -109 -62 -179l160 8v-90zM531 1627
q-33 -38 -68 -38q-34 0 -54 10q-20 9 -35 27t-24 42t-9 50q0 27 9 51t25 42q16 19 36 29t43 10t43 -10t35 -29q32 -38 32 -93q0 -53 -33 -91zM899 1627q-33 -38 -68 -38q-34 0 -54 10q-20 9 -35 27t-24 42t-9 50q0 27 9 51t25 42q16 19 36 29t43 10t43 -10t35 -29
q32 -38 32 -93q0 -53 -33 -91z" />
    <glyph glyph-name="Aring" unicode="&#xc5;" horiz-adv-x="1286" 
d="M512 942q-46 -132 -82 -232t-64 -180h474l-238 644h-4zM373 0h-383v68q82 0 124 71q20 34 36 81t38 104l419 1141q-135 12 -189 122q-20 42 -21 97q0 103 72 168t161 65q90 0 160 -55t72 -160q2 -104 -61 -165t-139 -71l454 -1159q57 -133 53 -225l140 8v-90h-469v68
q172 3 100 194l-72 192l-533 -12q-42 -120 -60 -181q-33 -109 -62 -179l160 8v-90zM516 1696q0 -70 32 -115t83 -45q50 0 73 28q41 49 41 122q-1 74 -33 118t-83 43h-7q-48 -3 -77 -42t-29 -109z" />
    <glyph glyph-name="AE" unicode="&#xc6;" horiz-adv-x="1944" 
d="M924 530v661l-441 -661h441zM1782 399h70l-12 -399h-1057v74h16q76 6 100.5 49t24.5 143v187l-499 -11l-241 -360l156 8v-90h-383v68q100 0 154.5 78.5t814.5 1206.5l-184 -10v91h1027l9 -359h-67q0 237 -104 262t-160 25h-13l-176 -4q-107 -4 -131.5 -52.5t-24.5 -191.5
v-330h152q140 0 177.5 24t51 62.5t13.5 106.5h67v-447h-67q0 125 -42.5 150t-88 28t-109.5 3l-154 -8q0 -569 -6 -621l403 -6q283 0 283 323z" />
    <glyph glyph-name="Ccedilla" unicode="&#xc7;" horiz-adv-x="1434" 
d="M1053 -259q0 -53 -21.5 -87t-99 -94t-301.5 -92l-12 78q172 30 211 83t39 83q0 65 -66 65q-47 0 -90 -28l-73 34l48 191q-264 38 -428 238.5t-164 496.5q0 295 149.5 481.5t296 231.5t265.5 45q223 0 413 -125l-10 110h111v-475h-74q-22 192 -134.5 299t-291.5 107
q-223 0 -373.5 -181.5t-150.5 -471.5t158.5 -473t380.5 -183t331.5 89t151.5 146l53 -43q-212 -293 -571 -299l-39 -124q55 33 114 33q95 0 136 -41t41 -94z" />
    <glyph glyph-name="Egrave" unicode="&#xc8;" 
d="M254 1204q0 94 7 148l-148 -9v91h985l10 -359h-67q0 237 -160 275q-48 12 -104 12l-189 -3q-106 -7 -135 -63q-20 -39 -20 -182v-330h384l-15 177h91v-431h-67q0 113 -40 147q-40 35 -144 35h-29q-15 0 -180 -7v-469q0 -114 -7 -160l392 6q144 2 219 73t75 244h70
l-12 -399h-1057v68q125 2 137 114q4 34 4 77v945zM410 1739q-58 35 -65 77t21 66q54 44 128 -20l258 -246l-45 -60z" />
    <glyph glyph-name="Eacute" unicode="&#xc9;" 
d="M254 1204q0 94 7 148l-148 -9v91h985l10 -359h-67q0 237 -160 275q-48 12 -104 12l-189 -3q-106 -7 -135 -63q-20 -39 -20 -182v-330h384l-15 177h91v-431h-67q0 113 -40 147q-40 35 -144 35h-29q-15 0 -180 -7v-469q0 -114 -7 -160l392 6q144 2 219 73t75 244h70
l-12 -399h-1057v68q125 2 137 114q4 34 4 77v945zM592 1556l-45 60l258 246q50 44 92 35q42 -8 55 -42q24 -64 -63 -116z" />
    <glyph glyph-name="Ecircumflex" unicode="&#xca;" 
d="M254 1204q0 94 7 148l-148 -9v91h985l10 -359h-67q0 237 -160 275q-48 12 -104 12l-189 -3q-106 -7 -135 -63q-20 -39 -20 -182v-330h384l-15 177h91v-431h-67q0 113 -40 147q-40 35 -144 35h-29q-15 0 -180 -7v-469q0 -114 -7 -160l392 6q144 2 219 73t75 244h70
l-12 -399h-1057v68q125 2 137 114q4 34 4 77v945zM678 1907h5l376 -289l-45 -70l-340 181h-4l-348 -179l-41 66z" />
    <glyph glyph-name="Edieresis" unicode="&#xcb;" 
d="M254 1204q0 94 7 148l-148 -9v91h985l10 -359h-67q0 237 -160 275q-48 12 -104 12l-189 -3q-106 -7 -135 -63q-20 -39 -20 -182v-330h384l-15 177h91v-431h-67q0 113 -40 147q-40 35 -144 35h-29q-15 0 -180 -7v-469q0 -114 -7 -160l392 6q144 2 219 73t75 244h70
l-12 -399h-1057v68q125 2 137 114q4 34 4 77v945zM565 1627q-33 -38 -68 -38q-34 0 -54 10q-20 9 -35 27t-24 42t-9 50q0 27 9 51t25 42q16 19 36 29t43 10t43 -10t35 -29q32 -38 32 -93q0 -53 -33 -91zM933 1627q-33 -38 -68 -38q-34 0 -54 10q-20 9 -35 27t-24 42t-9 50
q0 27 9 51t25 42q16 19 36 29t43 10t43 -10t35 -29q32 -38 32 -93q0 -53 -33 -91z" />
    <glyph glyph-name="Igrave" unicode="&#xcc;" horiz-adv-x="684" 
d="M432 244q0 -116 -7 -162l148 8v-90h-461v68q103 4 128 73q12 33 12 79t1 99v885q0 94 7 148l-148 -9v91h461v-68q-102 -4 -128 -74q-13 -33 -13 -78v-100v-870zM102 1739q-58 35 -65 77t21 66q54 44 128 -20l258 -246l-45 -60z" />
    <glyph glyph-name="Iacute" unicode="&#xcd;" horiz-adv-x="684" 
d="M433 244q0 -116 -7 -162l148 8v-90h-461v68q103 4 128 73q13 33 13 79v99v885q0 94 7 148l-148 -9v91h461v-68q-102 -4 -128 -74q-12 -33 -12 -78t-1 -100v-870zM246 1556l-45 60l258 246q50 44 92 35q42 -8 55 -42q24 -64 -63 -116z" />
    <glyph glyph-name="Icircumflex" unicode="&#xce;" horiz-adv-x="686" 
d="M432 244q0 -116 -7 -162l148 8v-90h-461v68q103 4 121.5 55t19 96.5t0.5 99.5v885q0 94 7 148l-148 -9v91h461v-68q-102 -4 -121 -55.5t-19.5 -96.5t-0.5 -100v-870zM359 1907h4l356 -289l-45 -70l-319 181h-4l-328 -179l-41 66z" />
    <glyph glyph-name="Idieresis" unicode="&#xcf;" horiz-adv-x="684" 
d="M309 1715q0 -27 -9.5 -50.5t-25 -41.5t-35.5 -27.5t-54.5 -9.5t-66.5 38.5t-32 77.5q0 40 9.5 64t24.5 42t35.5 28t43.5 10t43 -10t35 -28t23.5 -42t8.5 -51zM635 1715q0 -27 -9.5 -50.5t-25 -41.5t-35.5 -27.5t-54.5 -9.5t-66.5 38.5t-32 77.5q0 40 9.5 64t24.5 42
t35.5 28t43.5 10t43 -10t35 -28t23.5 -42t8.5 -51zM432 244q0 -116 -7 -162l148 8v-90h-461v68q103 4 121.5 55t19 96.5t0.5 99.5v885q0 94 7 148l-148 -9v91h461v-68q-102 -4 -121 -55.5t-19.5 -96.5t-0.5 -100v-870z" />
    <glyph glyph-name="Eth" unicode="&#xd0;" horiz-adv-x="1528" 
d="M580 78h68q261 0 423 183t162 462q0 459 -244 548t-413 89q-91 0 -116 -43.5t-25 -142.5v-402h249v-98l-249 -4v-428q0 -114 -7 -160q90 -4 152 -4zM256 1204q0 94 7 148l-148 -9v91l483 2q386 0 611 -181t225 -540q0 -298 -205.5 -506.5t-574.5 -208.5h-539v68
q126 3 133.5 76t7.5 115v409l-217 -2v106h217v432z" />
    <glyph glyph-name="Ntilde" unicode="&#xd1;" horiz-adv-x="1563" 
d="M117 68q135 0 135 161l2 1123l-137 -9v91h244l872 -1167h2l2 937q0 86 6 148l-147 -9v91h377v-68q-103 -4 -127 -74q-12 -33 -10 -78v-100l-4 -1147h-99l-889 1195h-3l7 -877q0 -138 -4 -203l148 8v-90h-375v68zM620 1737q-46 0 -80 -33t-72 -90l-70 39q35 88 101 149
q66 60 118 61q53 1 85 -9t60 -27q26 -16 50 -35q24 -20 62 -46q38 -27 83 -26q92 0 166 133l66 -32q-80 -230 -244 -230q-91 0 -185 73t-140 73z" />
    <glyph glyph-name="Ograve" unicode="&#xd2;" horiz-adv-x="1626" 
d="M94 716q0 88 19 176t58 172q83 178 244 291q161 112 394 112t398 -111t247 -285t82 -352q0 -179 -78 -347q-128 -281 -414 -373q-100 -32 -226 -32t-230 31q-104 30 -185 84t-139 126t-96 156t-56 174t-18 178zM295 773q0 -95 14 -177q15 -82 43 -159q63 -173 183 -279
q121 -107 292 -107q239 0 372 192t133 447q0 256 -139 468q-149 227 -413 227q-106 0 -201 -56t-158 -146q-63 -91 -95 -203t-31 -207zM606 1739q-58 35 -65 77t21 66q54 44 128 -20l258 -246l-45 -60z" />
    <glyph glyph-name="Oacute" unicode="&#xd3;" horiz-adv-x="1626" 
d="M94 716q0 88 19 176t58 172q83 178 244 291q161 112 394 112t398 -111t247 -285t82 -352q0 -179 -78 -347q-128 -281 -414 -373q-100 -32 -226 -32t-230 31q-104 30 -185 84t-139 126t-96 156t-56 174t-18 178zM295 773q0 -95 14 -177q15 -82 43 -159q63 -173 183 -279
q121 -107 292 -107q239 0 372 192t133 447q0 256 -139 468q-149 227 -413 227q-106 0 -201 -56t-158 -146q-63 -91 -95 -203t-31 -207zM687 1556l-45 60l258 246q50 44 92 35q42 -8 55 -42q24 -64 -63 -116z" />
    <glyph glyph-name="Ocircumflex" unicode="&#xd4;" horiz-adv-x="1626" 
d="M94 716q0 88 19 176t58 172q83 178 244 291q161 112 394 112t398 -111t247 -285t82 -352q0 -179 -78 -347q-128 -281 -414 -373q-100 -32 -226 -32t-230 31q-104 30 -185 84t-139 126t-96 156t-56 174t-18 178zM295 773q0 -95 14 -177q15 -82 43 -159q63 -173 183 -279
q121 -107 292 -107q239 0 372 192t133 447q0 256 -139 468q-149 227 -413 227q-106 0 -201 -56t-158 -146q-63 -91 -95 -203t-31 -207zM829 1907h5l376 -289l-45 -70l-340 181h-4l-348 -179l-41 66z" />
    <glyph glyph-name="Otilde" unicode="&#xd5;" horiz-adv-x="1626" 
d="M94 716q0 88 19 176t58 172q83 178 244 291q161 112 394 112t398 -111t247 -285t82 -352q0 -179 -78 -347q-128 -281 -414 -373q-100 -32 -226 -32t-230 31q-104 30 -185 84t-139 126t-96 156t-56 174t-18 178zM295 773q0 -95 14 -177q15 -82 43 -159q63 -173 183 -279
q121 -107 292 -107q239 0 372 192t133 447q0 256 -139 468q-149 227 -413 227q-106 0 -201 -56t-158 -146q-63 -91 -95 -203t-31 -207zM991 1720q92 0 166 133l66 -32q-80 -230 -244 -230q-91 0 -185 73t-140 73t-80 -33t-72 -90l-70 39q35 88 101 149q66 60 118 61
q53 1 85 -9t60 -27q26 -16 50 -35q24 -20 62 -46t83 -26z" />
    <glyph glyph-name="Odieresis" unicode="&#xd6;" horiz-adv-x="1626" 
d="M94 716q0 88 19 176t58 172q83 178 244 291q161 112 394 112t398 -111t247 -285t82 -352q0 -179 -78 -347q-128 -281 -414 -373q-100 -32 -226 -32t-230 31q-104 30 -185 84t-139 126t-96 156t-56 174t-18 178zM295 773q0 -95 14 -177q15 -82 43 -159q63 -173 183 -279
q121 -107 292 -107q239 0 372 192t133 447q0 256 -139 468q-149 227 -413 227q-106 0 -201 -56t-158 -146q-63 -91 -95 -203t-31 -207zM707 1627q-33 -38 -68 -38q-34 0 -54 10q-20 9 -35 27t-24 42t-9 50q0 27 9 51t25 42q16 19 36 29t43 10t43 -10t35 -29q32 -38 32 -93
q0 -53 -33 -91zM1075 1627q-33 -38 -68 -38q-34 0 -54 10q-20 9 -35 27t-24 42t-9 50q0 27 9 51t25 42q16 19 36 29t43 10t43 -10t35 -29q32 -38 32 -93q0 -53 -33 -91z" />
    <glyph glyph-name="multiply" unicode="&#xd7;" horiz-adv-x="1130" 
d="M111 279l363 356l-359 356l95 92l357 -356l374 367l82 -88l-369 -365l369 -367l-92 -92l-370 367l-362 -359z" />
    <glyph glyph-name="Oslash" unicode="&#xd8;" horiz-adv-x="1626" 
d="M825 51q239 0 372 191.5t133 451.5q0 259 -141 467q-4 5 -7 10l-614 -1041q119 -79 257 -79zM798 1385q-126 0 -221 -56t-189.5 -191t-94.5 -387t128 -463q26 -42 57 -77l614 1060q-130 114 -294 114zM795 -33q-147 0 -288 59l-112 -190l-98 62l106 183q-1 1 -2 1
q-231 154 -270 350t-39 284t19 176.5t80 219.5t222 243t374 112t370 -84l94 163l111 -69l-97 -165q192 -157 230.5 -333.5t38.5 -261.5t-19.5 -173.5t-58 -172t-97.5 -157t-138.5 -128.5t-179 -87t-246.5 -32z" />
    <glyph glyph-name="Ugrave" unicode="&#xd9;" horiz-adv-x="1540" 
d="M202 1114q0 158 8 238l-147 -6v88h460v-68q-91 0 -123 -60q-18 -34 -18 -102v-516q0 -176 22 -268q42 -170 135 -253t267 -83q213 0 316 145t108 400l8 575q0 86 6 148l-147 -9v91h381v-68q-103 -4 -129 -74q-13 -33 -13 -78v-100l-4 -475q-3 -466 -292 -617
q-105 -55 -264 -55q-316 0 -445 171t-129 560v416zM574 1739q-58 35 -65 77t21 66q54 44 128 -20l258 -246l-45 -60z" />
    <glyph glyph-name="Uacute" unicode="&#xda;" horiz-adv-x="1540" 
d="M202 1114q0 158 8 238l-147 -6v88h460v-68q-91 0 -123 -60q-18 -34 -18 -102v-516q0 -176 22 -268q42 -170 135 -253t267 -83q213 0 316 145t108 400l8 575q0 86 6 148l-147 -9v91h381v-68q-103 -4 -129 -74q-13 -33 -13 -78v-100l-4 -475q-3 -466 -292 -617
q-105 -55 -264 -55q-316 0 -445 171t-129 560v416zM747 1556l-45 60l258 246q50 44 92 35q42 -8 55 -42q24 -64 -63 -116z" />
    <glyph glyph-name="Ucircumflex" unicode="&#xdb;" horiz-adv-x="1540" 
d="M202 1114q0 158 8 238l-147 -6v88h460v-68q-91 0 -123 -60q-18 -34 -18 -102v-516q0 -176 22 -268q42 -170 135 -253t267 -83q213 0 316 145t108 400l8 575q0 86 6 148l-147 -9v91h381v-68q-103 -4 -129 -74q-13 -33 -13 -78v-100l-4 -475q-3 -466 -292 -617
q-105 -55 -264 -55q-316 0 -445 171t-129 560v416zM807 1907h5l376 -289l-45 -70l-340 181h-4l-348 -179l-41 66z" />
    <glyph glyph-name="Udieresis" unicode="&#xdc;" horiz-adv-x="1540" 
d="M202 1114q0 158 8 238l-147 -6v88h460v-68q-91 0 -123 -60q-18 -34 -18 -102v-516q0 -176 22 -268q42 -170 135 -253t267 -83q213 0 316 145t108 400l8 575q0 86 6 148l-147 -9v91h381v-68q-103 -4 -129 -74q-13 -33 -13 -78v-100l-4 -475q-3 -466 -292 -617
q-105 -55 -264 -55q-316 0 -445 171t-129 560v416zM702 1627q-33 -38 -68 -38q-34 0 -54 10q-20 9 -35 27t-24 42t-9 50q0 27 9 51t25 42q16 19 36 29t43 10t43 -10t35 -29q32 -38 32 -93q0 -53 -33 -91zM1070 1627q-33 -38 -68 -38q-34 0 -54 10q-20 9 -35 27t-24 42t-9 50
q0 27 9 51t25 42q16 19 36 29t43 10t43 -10t35 -29q32 -38 32 -93q0 -53 -33 -91z" />
    <glyph glyph-name="Yacute" unicode="&#xdd;" horiz-adv-x="1298" 
d="M-12 1434h528v-68q-133 0 -154 -59t46 -164q199 -320 291 -447h4q298 568 322 603q23 35 38 51l-162 -7v91h418v-68q-97 -6 -166 -70q-35 -32 -67 -80t-327 -602q-4 -370 -2 -425q1 -55 -5 -107l170 8v-90h-481v68q101 4 127 76q12 34 12 78v97l1 234l-355 563
q-93 144 -111 232l-127 -5v91zM656 1556l-45 60l258 246q50 44 92 35q42 -8 55 -42q24 -64 -63 -116z" />
    <glyph glyph-name="Thorn" unicode="&#xde;" horiz-adv-x="1221" 
d="M555 408q78 0 246 50.5t168 313.5q0 336 -414 336q-68 0 -122 -4v-690q44 -6 122 -6zM433 244q0 -116 -7 -162l148 8v-90h-461v68q126 3 133.5 76t7.5 115v945q0 94 7 148l-148 -9v91h461v-68q-92 -4 -116.5 -49t-24.5 -133l110 2q626 0 626 -409q0 -265 -219 -356
t-489 -91h-28v-86z" />
    <glyph glyph-name="germandbls" unicode="&#xdf;" horiz-adv-x="1395" 
d="M518 0h-417v61q84 0 102 56t18 194l-2 625l-168 -4v92h168v2q0 237 128 383.5t365 146.5q166 0 284.5 -78.5t154 -190t35.5 -187.5t-6 -121q-62 5 -121 5q-260 0 -260 -159q0 -111 109.5 -168.5t198 -102t160 -111.5t71.5 -159q0 -164 -93 -240.5t-239 -76.5
q-147 0 -252 66l6 -49h-98v352h63q13 -204 107 -246.5t141 -42.5q86 0 139.5 44t53.5 122q0 110 -156.5 186t-264.5 139.5t-108 210.5t92.5 227.5t264.5 80.5h15v22q0 308 -115 349t-193 41t-143 -39.5t-113.5 -133.5t-48.5 -358l2 -721q0 -94 -9 -139l129 6v-84z" />
    <glyph glyph-name="agrave" unicode="&#xe0;" horiz-adv-x="1057" 
d="M311 815q0 -105 -88 -105q-43 0 -67 30t-24 76q0 99 115 170t288 71t255 -91t81 -289l-2 -460q0 -72 -8 -139l145 8v-86h-293q-10 59 -14 116q-149 -149 -323 -149q-224 -1 -287 147q-19 44 -19 102q0 57 28 109q28 53 74 93q89 77 232 116q144 39 291 37v128
q-1 129 -27 182q-50 101 -170 101q-157 0 -213 -108q26 -29 26 -59zM424 84q142 0 270 120v297q-250 -11 -363 -113q-70 -63 -66 -163q3 -99 99 -131q28 -10 60 -10zM328 1405q-44 46 -44 80t14 51q24 31 64 31q41 0 81 -56l172 -276l-57 -47z" />
    <glyph glyph-name="aacute" unicode="&#xe1;" horiz-adv-x="1057" 
d="M311 815q0 -105 -88 -105q-43 0 -67 30t-24 76q0 99 115 170t288 71t255 -91t81 -289l-2 -460q0 -72 -8 -139l145 8v-86h-293q-10 59 -14 116q-149 -149 -323 -149q-224 -1 -287 147q-19 44 -19 102q0 57 28 109q28 53 74 93q89 77 232 116q144 39 291 37v128
q-1 129 -27 182q-50 101 -170 101q-157 0 -213 -108q26 -29 26 -59zM424 84q142 0 270 120v297q-250 -11 -363 -113q-70 -63 -66 -163q3 -99 99 -131q28 -10 60 -10zM708 1543q18 -24 19 -43q0 -50 -44 -95l-230 -217l-57 47l172 276q39 56 81 56q41 0 59 -24z" />
    <glyph glyph-name="acircumflex" unicode="&#xe2;" horiz-adv-x="1057" 
d="M311 815q0 -105 -88 -105q-43 0 -67 30t-24 76q0 99 115 170t288 71t255 -91t81 -289l-2 -460q0 -72 -8 -139l145 8v-86h-293q-10 59 -14 116q-149 -149 -323 -149q-224 -1 -287 147q-19 44 -19 102q0 57 28 109q28 53 74 93q89 77 232 116q144 39 291 37v128
q-1 129 -27 182q-50 101 -170 101q-157 0 -213 -108q26 -29 26 -59zM424 84q142 0 270 120v297q-250 -11 -363 -113q-70 -63 -66 -163q3 -99 99 -131q28 -10 60 -10zM513 1593h4l305 -333l-55 -66l-260 223h-4l-265 -209l-51 60z" />
    <glyph glyph-name="atilde" unicode="&#xe3;" horiz-adv-x="1057" 
d="M311 815q0 -105 -88 -105q-43 0 -67 30t-24 76q0 99 115 170t288 71t255 -91t81 -289l-2 -460q0 -72 -8 -139l145 8v-86h-293q-10 59 -14 116q-149 -149 -323 -149q-224 -1 -287 147q-19 44 -19 102q0 57 28 109q28 53 74 93q89 77 232 116q144 39 291 37v128
q-1 129 -27 182q-50 101 -170 101q-157 0 -213 -108q26 -29 26 -59zM424 84q142 0 270 120v297q-250 -11 -363 -113q-70 -63 -66 -163q3 -99 99 -131q28 -10 60 -10zM363 1364q-95 0 -150 -86l-61 35q25 70 88 122t116 53t89 -16q36 -18 66 -38t58 -37q27 -17 67 -17t80 27
t64 72l60 -31q-48 -144 -152 -184q-30 -12 -68 -11q-38 -1 -74 17t-68 38t-60 38t-55 18z" />
    <glyph glyph-name="adieresis" unicode="&#xe4;" horiz-adv-x="1057" 
d="M311 815q0 -105 -88 -105q-43 0 -67 30t-24 76q0 99 115 170t288 71t255 -91t81 -289l-2 -460q0 -72 -8 -139l145 8v-86h-293q-10 59 -14 116q-149 -149 -323 -149q-224 -1 -287 147q-19 44 -19 102q0 57 28 109q28 53 74 93q89 77 232 116q144 39 291 37v128
q-1 129 -27 182q-50 101 -170 101q-157 0 -213 -108q26 -29 26 -59zM424 84q142 0 270 120v297q-250 -11 -363 -113q-70 -63 -66 -163q3 -99 99 -131q28 -10 60 -10zM741 1284q-31 -36 -61 -36q-32 0 -50 10t-32 26t-22 38t-8 47q0 51 31 87t62 37q33 0 51 -10
q18 -11 32 -27q28 -35 28 -85q0 -51 -31 -87zM399 1284q-31 -36 -61 -36q-32 0 -50 10t-32 26t-22 38t-8 47q0 51 31 87t62 37q33 0 51 -10q18 -11 32 -27q28 -35 28 -85q0 -51 -31 -87z" />
    <glyph glyph-name="aring" unicode="&#xe5;" horiz-adv-x="1057" 
d="M311 815q0 -105 -88 -105q-43 0 -67 30t-24 76q0 99 115 170t288 71t255 -91t81 -289l-2 -460q0 -72 -8 -139l145 8v-86h-293q-10 59 -14 116q-149 -149 -323 -149q-224 -1 -287 147q-19 44 -19 102q0 57 28 109q28 53 74 93q89 77 232 116q144 39 291 37v128
q-1 129 -27 182q-50 101 -170 101q-157 0 -213 -108q26 -29 26 -59zM424 84q142 0 270 120v297q-250 -11 -363 -113q-70 -63 -66 -163q3 -99 99 -131q28 -10 60 -10zM656 1510q61 -49 61 -139q0 -89 -60 -147q-60 -57 -138 -57q-133 -1 -185 107q-18 36 -18 84t18 84t45 62
q59 55 137 55q79 0 140 -49zM520 1495q-40 1 -68 -31t-28 -76q0 -75 26 -116t68 -41q41 1 66 33t25 93q-1 61 -25 99t-64 39z" />
    <glyph glyph-name="ae" unicode="&#xe6;" horiz-adv-x="1591" 
d="M287.5 735q-22.5 -29 -63.5 -29t-64.5 26t-23.5 72q0 99 106 176t274 77q205 0 283 -177q129 177 334 177q256 0 309 -165.5t54 -287.5l-625 -12q-3 -38 -3 -110t23 -155.5t85 -169t196 -85.5t196.5 67t88.5 103l51 -41q-154 -234 -383 -234q-258 0 -366 194h-2
q-143 -194 -388 -194q-137 0 -218 66.5t-81 178.5t114.5 211.5t275.5 119.5t229 20v125q0 138 -26.5 190.5t-66.5 78t-92 25.5q-87 0 -143.5 -33.5t-78.5 -88.5q28 -26 28 -61t-22.5 -64zM1099 977q-86 0 -142.5 -82.5t-71.5 -216.5h426q0 133 -26.5 189.5t-63 83
t-122.5 26.5zM265 250q0 -96 51 -131.5t126 -35.5q144 0 265 136q-15 108 -21 274q-275 -12 -348 -98.5t-73 -144.5z" />
    <glyph glyph-name="ccedilla" unicode="&#xe7;" horiz-adv-x="1094" 
d="M652 -116q72 0 109.5 -36t37.5 -88t-20 -85t-87 -84.5t-295 -84.5l-12 69q171 30 208.5 78t37.5 78q0 61 -65 61q-50 0 -93 -30l-69 34l50 188q-237 63 -302.5 224t-65.5 259t17.5 167t69 166t173 177t280.5 80t266 -75t107 -178q0 -72 -35.5 -90t-61.5 -18
q-47 0 -70 29.5t-23 71.5t31 74q-43 110 -217 110q-143 0 -235.5 -115.5t-92.5 -321.5t97.5 -338t247.5 -132t227 69.5t102 106.5l53 -41q-76 -119 -196 -180.5t-234 -61.5q-15 0 -30 1l-40 -120q58 36 130 36z" />
    <glyph glyph-name="egrave" unicode="&#xe8;" horiz-adv-x="1110" 
d="M828 120q98 48 152 122l50 -41q-77 -117 -201 -176q-124 -58 -237 -58q-224 0 -365 150t-141 382q0 233 145 396q145 162 371 162q180 0 298 -116t118 -337l-721 -12q-3 -376 183 -483q64 -37 157 -37t191 48zM604 977q-254 0 -301 -299h522q0 196 -119 272
q-42 26 -102 27zM371 1405q-44 46 -44 80q-1 34 13 51q24 31 65 31t81 -56l172 -276l-57 -47z" />
    <glyph glyph-name="eacute" unicode="&#xe9;" horiz-adv-x="1110" 
d="M828 120q98 48 152 122l50 -41q-77 -117 -201 -176q-124 -58 -237 -58q-224 0 -365 150t-141 382q0 233 145 396q145 162 371 162q180 0 298 -116t118 -337l-721 -12q-3 -376 183 -483q64 -37 157 -37t191 48zM604 977q-254 0 -301 -299h522q0 196 -119 272
q-42 26 -102 27zM796 1543q18 -24 18 -43q0 -50 -44 -95l-230 -217l-57 47l172 276q39 56 81 56t60 -24z" />
    <glyph glyph-name="ecircumflex" unicode="&#xea;" horiz-adv-x="1110" 
d="M828 120q98 48 152 122l50 -41q-77 -117 -201 -176q-124 -58 -237 -58q-224 0 -365 150t-141 382q0 233 145 396q145 162 371 162q180 0 298 -116t118 -337l-721 -12q-3 -376 183 -483q64 -37 157 -37t191 48zM604 977q-254 0 -301 -299h522q0 196 -119 272
q-42 26 -102 27zM601 1593h4l305 -333l-55 -66l-260 223h-4l-265 -209l-51 60z" />
    <glyph glyph-name="edieresis" unicode="&#xeb;" horiz-adv-x="1110" 
d="M828 120q98 48 152 122l50 -41q-77 -117 -201 -176q-124 -58 -237 -58q-224 0 -365 150t-141 382q0 233 145 396q145 162 371 162q180 0 298 -116t118 -337l-721 -12q-3 -376 183 -483q64 -37 157 -37t191 48zM604 977q-254 0 -301 -299h522q0 196 -119 272
q-42 26 -102 27zM823 1284q-31 -36 -61 -36q-32 0 -50 10t-32 26t-22 38t-8 47q0 51 31 87t62 37q33 0 51 -10q18 -11 32 -27q28 -35 28 -85q0 -51 -31 -87zM481 1284q-31 -36 -61 -36q-32 0 -50 10t-32 26t-22 38t-8 47q0 51 31 87t62 37q33 0 51 -10q18 -11 32 -27
q28 -35 28 -85q0 -51 -31 -87z" />
    <glyph glyph-name="igrave" unicode="&#xec;" horiz-adv-x="575" 
d="M386 217q0 -92 -8 -139l129 6v-84h-418v61q84 0 107 70q14 42 14 180v467q0 67 8 133l-145 -8v86q171 1 227 35q16 10 27 20h59v-827zM53 1405q-44 46 -44 80q-1 34 13 51q24 31 65 31t81 -56l172 -276l-57 -47z" />
    <glyph glyph-name="iacute" unicode="&#xed;" horiz-adv-x="578" 
d="M388 217q0 -92 -8 -139l129 6v-84h-418v61q84 0 107 70q14 42 14 180v467q0 67 8 133l-145 -8v86q171 1 227 35q16 10 27 20h59v-827zM518 1543q18 -24 19 -43q0 -50 -44 -95l-230 -217l-57 47l172 276q39 56 81 56q41 0 59 -24z" />
    <glyph glyph-name="icircumflex" unicode="&#xee;" horiz-adv-x="575" 
d="M388 217q0 -92 -8 -139l129 6v-84h-418v61q84 0 102.5 56t18.5 194v467q0 67 8 133l-145 -8v86q170 0 206 22t48 33h59v-827zM295 1593h4l275 -333l-56 -66l-229 213h-4l-234 -199l-51 60z" />
    <glyph glyph-name="idieresis" unicode="&#xef;" horiz-adv-x="575" 
d="M500 1283.5q-30 -35.5 -62 -35.5q-53 0 -82.5 35t-29.5 73q0 62 30.5 99t62.5 37t50.5 -9.5t39.5 -36t21 -76.5q0 -51 -30 -86.5zM213 1283.5q-30 -35.5 -62 -35.5q-53 0 -82.5 35t-29.5 73q0 62 30.5 99t62.5 37t50.5 -9.5t39.5 -36t21 -76.5q0 -51 -30 -86.5zM388 217
q0 -92 -8 -139l129 6v-84h-418v61q84 0 102.5 56t18.5 194v467q0 67 8 133l-145 -8v86q170 0 206 22t48 33h59v-827z" />
    <glyph glyph-name="eth" unicode="&#xf0;" horiz-adv-x="1145" 
d="M846 440q0 76 -5.5 129.5t-25.5 136t-83 154.5t-163 72q-129 0 -202.5 -126t-73.5 -323t75 -315.5t194 -118.5q120 0 178 79t82 157.5t24 154.5zM565 1455q217 -122 340 -366t123 -518t-124.5 -439t-373.5 -165q-189 0 -315.5 132.5t-126.5 358.5t123.5 392t327.5 166
q138 0 200.5 -48.5t85.5 -86.5h4q-54 219 -158 331.5t-173 157.5l-125 -158l-74 62l119 141q-105 46 -207 55l9 86q137 -8 265 -62l111 130l59 -55z" />
    <glyph glyph-name="ntilde" unicode="&#xf1;" horiz-adv-x="1241" 
d="M76 989q165 1 216 35q14 10 26 20h59q7 -79 9 -124q108 94 244 126q46 10 89 11q178 1 260 -111t82 -347v-382q0 -92 -8 -139l129 6v-84h-418v61q84 0 107 70q14 42 14 180v286q-2 177 -58 267t-171 89q-115 0 -216 -81q-30 -24 -52 -52q1 -18 1 -38v-42l-2 -523
q0 -92 -8 -139l129 6v-84h-418v61q84 0 106 70q12 37 15 180l2 467q0 86 8 133l-145 -8v86zM490 1364q-95 0 -150 -86l-61 35q25 70 88 122t116 53t89 -16q36 -18 66 -38t58 -37t68 -17t79 27q40 27 64 72l60 -31q-49 -144 -153 -184q-30 -12 -66 -11q-38 -1 -75 17t-69 38
t-58 38q-28 18 -56 18z" />
    <glyph glyph-name="ograve" unicode="&#xf2;" horiz-adv-x="1198" 
d="M964 908q150 -150 150 -380t-149 -396q-149 -165 -367 -165t-366 147t-148 381t148 398t365 164q217 1 367 -149zM370 855q-77 -124 -77 -320q0 -195 84 -341q84 -145 235 -145q152 0 228 133q64 112 65 307q0 195 -71 331q-83 159 -235 159t-229 -124zM409 1405
q-44 46 -44 80q-1 34 13 51q24 31 65 31t81 -56l172 -276l-57 -47z" />
    <glyph glyph-name="oacute" unicode="&#xf3;" horiz-adv-x="1198" 
d="M964 908q150 -150 150 -380t-149 -396q-149 -165 -367 -165t-366 147t-148 381t148 398t365 164q217 1 367 -149zM370 855q-77 -124 -77 -320q0 -195 84 -341q84 -145 235 -145q152 0 228 133q64 112 65 307q0 195 -71 331q-83 159 -235 159t-229 -124zM796 1543
q18 -24 18 -43q0 -50 -44 -95l-230 -217l-57 47l172 276q39 56 81 56t60 -24z" />
    <glyph glyph-name="ocircumflex" unicode="&#xf4;" horiz-adv-x="1198" 
d="M964 908q150 -150 150 -380t-149 -396q-149 -165 -367 -165t-366 147t-148 381t148 398t365 164q217 1 367 -149zM370 855q-77 -124 -77 -320q0 -195 84 -341q84 -145 235 -145q152 0 228 133q64 112 65 307q0 195 -71 331q-83 159 -235 159t-229 -124zM606 1593h4
l305 -333l-55 -66l-260 223h-4l-265 -209l-51 60z" />
    <glyph glyph-name="otilde" unicode="&#xf5;" horiz-adv-x="1198" 
d="M964 908q150 -150 150 -380t-149 -396q-149 -165 -367 -165t-366 147t-148 381t148 398t365 164q217 1 367 -149zM370 855q-77 -124 -77 -320q0 -195 84 -341q84 -145 235 -145q152 0 228 133q64 112 65 307q0 195 -71 331q-83 159 -235 159t-229 -124zM465 1364
q-95 0 -150 -86l-61 35q25 70 88 122t116 53t89 -16q36 -18 66 -38t58 -37q27 -17 67 -17t80 27t64 72l60 -31q-48 -144 -152 -184q-30 -12 -68 -11q-38 -1 -74 17t-68 38t-60 38t-55 18z" />
    <glyph glyph-name="odieresis" unicode="&#xf6;" horiz-adv-x="1198" 
d="M964 908q150 -150 150 -380t-149 -396q-149 -165 -367 -165t-366 147t-148 381t148 398t365 164q217 1 367 -149zM370 855q-77 -124 -77 -320q0 -195 84 -341q84 -145 235 -145q152 0 228 133q64 112 65 307q0 195 -71 331q-83 159 -235 159t-229 -124zM834 1284
q-31 -36 -61 -36q-31 0 -49 10t-33 26q-14 16 -22 38t-8 47q0 51 31 87t62 37q32 0 50 -10q18 -11 32 -27q28 -35 29 -85q0 -51 -31 -87zM492 1284q-31 -36 -61 -36q-31 0 -49 10t-33 26q-14 16 -22 38t-8 47q0 51 31 87t62 37q32 0 50 -10q18 -11 32 -27q28 -35 29 -85
q0 -51 -31 -87z" />
    <glyph glyph-name="divide" unicode="&#xf7;" horiz-adv-x="541" 
d="M391 222q0 -28 -10 -52q-11 -24 -27 -42t-38 -28t-45 -10q-49 0 -84 38t-35 80q0 68 36 108q36 39 73 39q37 -1 59 -11t37 -28q16 -18 25 -42t9 -52zM391 924q0 -28 -10 -52q-11 -24 -27 -42t-38 -28t-45 -10q-49 0 -84 38t-35 80q0 68 36 108q36 39 73 39q37 -1 59 -11
t37 -28q16 -18 25 -42t9 -52z" />
    <glyph glyph-name="oslash" unicode="&#xf8;" horiz-adv-x="1198" 
d="M600 49q164 0 234.5 122.5t70.5 306.5t-55 307l-425 -655q81 -81 175 -81zM612 979q-166 0 -242.5 -124.5t-76.5 -311.5t70 -325l423 672q-79 89 -174 89zM84 482q0 247 147.5 411t366.5 164q137 0 252 -64l104 164l97 -63l-108 -167l20 -19q151 -149 151 -380t-149 -396
t-380 -165q-122 0 -229 57l-116 -178l-76 56l110 175q-88 69 -139 174t-51 231z" />
    <glyph glyph-name="ugrave" unicode="&#xf9;" horiz-adv-x="1223" 
d="M856 123q-156 -156 -354 -156q-154 1 -235 101t-81 346v364q0 86 8 133l-141 -6v84h64q130 0 190 55h59v-624q0 -270 119 -328q42 -20 92 -20q85 0 158 48t115 110v525q0 98 10 156l-147 -6v84h63q131 0 191 55h59l-2 -774q0 -108 -8 -192l147 8v-86h-293q-11 75 -14 123
zM417 1405q-44 46 -44 80q-1 34 13 51q24 31 65 31t81 -56l172 -276l-57 -47z" />
    <glyph glyph-name="uacute" unicode="&#xfa;" horiz-adv-x="1223" 
d="M856 123q-156 -156 -354 -156q-154 1 -235 101t-81 346v364q0 86 8 133l-141 -6v84h64q130 0 190 55h59v-624q0 -270 119 -328q42 -20 92 -20q85 0 158 48t115 110v525q0 98 10 156l-147 -6v84h63q131 0 191 55h59l-2 -774q0 -108 -8 -192l147 8v-86h-293q-11 75 -14 123
zM838 1543q18 -24 18 -43q0 -50 -44 -95l-230 -217l-57 47l172 276q39 56 81 56t60 -24z" />
    <glyph glyph-name="ucircumflex" unicode="&#xfb;" horiz-adv-x="1223" 
d="M856 123q-156 -156 -354 -156q-154 1 -235 101t-81 346v364q0 86 8 133l-141 -6v84h64q130 0 190 55h59v-624q0 -270 119 -328q42 -20 92 -20q85 0 158 48t115 110v525q0 98 10 156l-147 -6v84h63q131 0 191 55h59l-2 -774q0 -108 -8 -192l147 8v-86h-293q-11 75 -14 123
zM622 1593h4l305 -333l-55 -66l-260 223h-4l-265 -209l-51 60z" />
    <glyph glyph-name="udieresis" unicode="&#xfc;" horiz-adv-x="1223" 
d="M856 123q-156 -156 -354 -156q-154 1 -235 101t-81 346v364q0 86 8 133l-141 -6v84h64q130 0 190 55h59v-624q0 -270 119 -328q42 -20 92 -20q85 0 158 48t115 110v525q0 98 10 156l-147 -6v84h63q131 0 191 55h59l-2 -774q0 -108 -8 -192l147 8v-86h-293q-11 75 -14 123
zM867 1284q-31 -36 -61 -36q-32 0 -50 10t-32 26t-22 38t-8 47q0 51 31 87t62 37q33 0 51 -10q18 -11 32 -27q28 -35 28 -85q0 -51 -31 -87zM525 1284q-31 -36 -61 -36q-32 0 -50 10t-32 26t-22 38t-8 47q0 51 31 87t62 37q33 0 51 -10q18 -11 32 -27q28 -35 28 -85
q0 -51 -31 -87z" />
    <glyph glyph-name="yacute" unicode="&#xfd;" horiz-adv-x="1081" 
d="M267 -423q0 -15 -3 -25q11 -5 26 -5q16 -1 44 15t67 83t134 332q-347 743 -366 788q-52 123 -62 180l-99 -5v84h424v-61q-55 -6 -76 -21q-21 -14 -26 -44t6 -78t281 -613q213 621 236 675t40 66l-141 -8v84h321v-61q-72 -27 -114 -95q-21 -34 -39 -77t-179 -491
t-200 -548t-81 -168q-87 -139 -203 -139q-116 -1 -151 69q-12 24 -12 49q0 46 24 76t56 30t48 -9t27 -23q10 -13 14 -29t4 -31zM840 1543q18 -24 19 -43q0 -50 -44 -95l-230 -217l-57 47l172 276q39 56 81 56q41 0 59 -24z" />
    <glyph glyph-name="thorn" unicode="&#xfe;" horiz-adv-x="1182" 
d="M327 127q103 -78 243 -78t226 127.5t86 322.5q0 194 -79.5 326t-227.5 132t-247 -105zM18 1491q168 0 204 22t48 33h59l-1 -599q136 110 318 110t314.5 -142t132.5 -386t-151 -403t-371 -159q-145 0 -244 64v-336q0 -92 -8 -139l129 6v-84h-418v61q84 0 101 53.5
t20 196.5l4 1491q0 86 8 133l-145 -8v86z" />
    <glyph glyph-name="ydieresis" unicode="&#xff;" horiz-adv-x="1081" 
d="M267 -423q0 -15 -3 -25q11 -5 26 -5q16 -1 44 15t67 83t134 332q-347 743 -366 788q-52 123 -62 180l-99 -5v84h424v-61q-55 -6 -76 -21q-21 -14 -26 -44t6 -78t281 -613q213 621 236 675t40 66l-141 -8v84h321v-61q-72 -27 -114 -95q-21 -34 -39 -77t-179 -491
t-200 -548t-81 -168q-87 -139 -203 -139q-116 -1 -151 69q-12 24 -12 49q0 46 24 76t56 30t48 -9t27 -23q10 -13 14 -29t4 -31zM835 1284q-31 -36 -61 -36q-32 0 -50 10t-32 26t-22 38t-8 47q0 51 31 87t62 37q33 0 51 -10q18 -11 32 -27q28 -35 28 -85q0 -51 -31 -87z
M493 1284q-31 -36 -61 -36q-32 0 -50 10t-32 26t-22 38t-8 47q0 51 31 87t62 37q33 0 51 -10q18 -11 32 -27q28 -35 28 -85q0 -51 -31 -87z" />
    <glyph glyph-name="macton" unicode="&#x100;" horiz-adv-x="1282" 
d="M510 942q-46 -132 -82 -232t-64 -180h474l-238 644h-4zM371 0h-383v68q82 0 124 71q20 34 36 81t38 104l422 1149h49l457 -1166q57 -133 53 -225l140 8v-90h-469v68q172 3 100 194l-72 192l-533 -12q-42 -120 -60 -181q-33 -109 -62 -179l160 8v-90zM359 1844h543v-115
l-543 -8v123z" />
    <glyph glyph-name="amacron" unicode="&#x101;" horiz-adv-x="1057" 
d="M311 815q0 -105 -88 -105q-43 0 -67 30t-24 76q0 99 115 170t288 71t255 -91t81 -289l-2 -460q0 -72 -8 -139l145 8v-86h-293q-10 59 -14 116q-149 -149 -323 -149q-224 -1 -287 147q-19 44 -19 102q0 57 28 109q28 53 74 93q89 77 232 116q144 39 291 37v128
q-1 129 -27 182q-50 101 -170 101q-157 0 -213 -108q26 -29 26 -59zM424 84q142 0 270 120v297q-250 -11 -363 -113q-70 -63 -66 -163q3 -99 99 -131q28 -10 60 -10zM242 1434h543v-115l-543 -8v123z" />
    <glyph glyph-name="Abreve" unicode="&#x102;" horiz-adv-x="1282" 
d="M510 942q-46 -132 -82 -232t-64 -180h474l-238 644h-4zM371 0h-383v68q82 0 124 71q20 34 36 81t38 104l422 1149h49l457 -1166q57 -133 53 -225l140 8v-90h-469v68q172 3 100 194l-72 192l-533 -12q-42 -120 -60 -181q-33 -109 -62 -179l160 8v-90zM642 1657
q-94 0 -173 54t-127 157l55 24q54 -70 169 -100q37 -10 76 -10q72 0 141 32t104 78l55 -24q-48 -103 -127 -157t-173 -54z" />
    <glyph glyph-name="abreve" unicode="&#x103;" horiz-adv-x="1057" 
d="M312 815q0 -105 -88 -105q-44 0 -68 30t-23 76q0 99 115 170t288 71q174 0 256 -91t80 -289l-2 -460q0 -72 -8 -139l145 8v-86h-293q-10 59 -14 116q-149 -149 -323 -149q-224 -1 -287 147q-19 44 -19 102q-1 57 27 109q28 53 74 93q89 77 233 116t291 37v128
q0 129 -26 182q-50 101 -171 101q-157 0 -213 -108q26 -29 26 -59zM425 84q142 0 270 120v297q-250 -11 -363 -113q-70 -63 -66 -163q3 -99 99 -131q28 -10 60 -10zM645 1405q61 43 94 104l55 -24q-90 -248 -282 -248q-138 1 -228 133q-30 44 -49 105l60 30q51 -94 155 -131
q34 -12 84 -12t111 43z" />
    <glyph glyph-name="Aogonek" unicode="&#x104;" horiz-adv-x="1282" 
d="M838 530l-238 644h-4l-86 -232q-47 -132 -82.5 -232.5t-63.5 -179.5h474zM1180 -402q-108 -129 -250 -129q-91 0 -151 58t-60 151q0 142 116 218.5t175 103.5h-172v68q172 3 100 194l-72 192l-533 -12q-42 -120 -60 -181q-33 -109 -62 -179l160 8v-90h-383v68
q82 0 113 52.5t47.5 99.5t37.5 104l422 1149h49l457 -1166q57 -133 53 -225l140 8v-90h-152q-122 -45 -174 -95t-74 -92.5t-22 -84.5q0 -71 37 -110t97 -39q61 0 126 56z" />
    <glyph glyph-name="aogonek" unicode="&#x105;" horiz-adv-x="1057" 
d="M424 84q142 0 270 120q-1 23 -1 30v32l1 71v164q-250 -11 -341.5 -93.5t-87.5 -182.5q3 -99 65 -120t94 -21zM987 -391q-108 -129 -250 -129q-91 0 -151 58t-60 151q0 136 106.5 210t161.5 101h-81q-10 59 -14 116q-149 -149 -323 -149q-224 0 -265 96t-41 153t27.5 109
t95 111t211 98t291.5 37v128q0 130 -26 180.5t-65.5 75.5t-87.5 27q-173 5 -231 -108q26 -29 26 -59q0 -48 -23 -77.5t-67 -27.5q-45 1 -67 30.5t-22 75.5q0 99 114.5 170t288.5 71t255.5 -91t78.5 -289v-460q0 -72 -8 -139l145 8v-86h-73q-168 -67 -204.5 -144.5
t-36.5 -117.5q0 -69 37 -108.5t97 -39.5q61 0 126 56z" />
    <glyph glyph-name="Cacute" unicode="&#x106;" horiz-adv-x="1432" 
d="M805 1467q225 0 413 -125l-10 110h111v-475h-74q-22 192 -134 299t-292 107q-223 0 -373 -181q-151 -181 -151 -472q0 -290 159 -473t381 -183t386 134q54 44 96 101l53 -43q-120 -164 -294 -240q-134 -58 -287 -59q-153 1 -281 57t-220 154q-194 207 -194 516
q0 310 177 530q122 152 316 212q99 30 218 31zM713 1556l-45 60l258 246q50 44 92 35q42 -8 55 -42q24 -64 -63 -116z" />
    <glyph glyph-name="cacute" unicode="&#x107;" horiz-adv-x="1090" 
d="M621 981q-143 0 -236 -115q-92 -115 -92 -322q0 -206 97 -338t248 -132q150 0 268 107q36 32 61 69l53 -41q-76 -119 -204 -185q-206 -106 -422 -22q-190 73 -270 269q-40 98 -40 196t18 167q18 70 50 132q70 132 191 211q122 80 281 80t266 -75t107 -178q-1 -44 -25 -76
t-60 -32q-57 -2 -81 29q-24 30 -24 72t31 74q-43 110 -217 110zM803 1500q0 -50 -44 -95l-230 -217l-57 47l172 276q38 56 84 56q38 0 56 -24q18 -25 19 -43z" />
    <glyph glyph-name="Ccaron" unicode="&#x10c;" horiz-adv-x="1432" 
d="M806 1467q225 0 413 -125l-10 110h111v-475h-74q-22 192 -134 299t-292 107q-223 0 -373 -181q-151 -181 -151 -472q0 -290 159 -473t381 -183t386 134q54 44 96 101l53 -43q-119 -164 -293 -240q-134 -59 -288 -59q-153 1 -281 57t-220 154q-194 207 -194 516
q0 310 177 530q122 152 316 212q99 30 218 31zM813 1528h-4l-377 289l45 69l340 -180h4l348 184l41 -65z" />
    <glyph glyph-name="ccaron" unicode="&#x10d;" horiz-adv-x="1090" 
d="M294 544q0 -206 97 -338t248 -132t269 107q36 32 60 69l53 -41q-75 -119 -203 -185q-206 -106 -423 -22q-190 73 -270 269q-40 98 -40 196q-1 98 17 167q18 70 51 132q70 132 191 211q122 80 281 80t266 -75t107 -178q0 -44 -24 -76t-62 -32q-57 -2 -80 29q-24 30 -24 72
t31 74q-43 110 -217 110q-143 0 -236 -115q-92 -116 -92 -322zM589 1174h-4l-305 333l55 66l261 -223h4l264 227l51 -59z" />
    <glyph glyph-name="Dcaron" unicode="&#x10e;" horiz-adv-x="1526" 
d="M255 1204q0 94 7 148l-148 -9v91l483 2q386 0 611 -181t225 -540q0 -298 -205 -506q-205 -209 -575 -209h-539v68q103 4 128 73q12 33 12 79t1 99v885zM555 78h92q261 0 423 183t162 462q0 459 -364 592q-124 45 -293 45q-103 0 -128 -68q-13 -32 -13 -78v-100v-872
q0 -114 -7 -160q82 -4 128 -4zM743 1528h-4l-377 289l45 69l340 -180h4l348 184l41 -65z" />
    <glyph glyph-name="dcaron" unicode="&#x10f;" horiz-adv-x="1358" 
d="M642 976q-116 0 -190 -56t-116 -156q-41 -100 -41 -234q-1 -134 35 -238t105 -164t151 -60q161 0 264 134l-1 53l1 60v590q-92 71 -208 71zM604 1057q143 0 247 -57v280q0 78 6 133l-145 -8v86q152 1 210 27q25 12 44 28h59v-1329q0 -66 -8 -139l145 8v-86h-293
q-10 57 -13 107q-127 -140 -329 -140q-127 -1 -227 63t-158 181t-57 277q0 160 68 290t188 205q120 74 263 74zM1377 1485q0 -180 -170 -350l-54 40q77 145 77 273q0 61 -19 140l141 -27q25 -51 25 -76z" />
    <glyph glyph-name="Dcroat" unicode="&#x110;" horiz-adv-x="1528" 
d="M556 78h92q261 0 423 183t162 462q0 459 -244 548t-413 89q-103 0 -121.5 -50.5t-19 -95.5t-0.5 -100v-342h249v-98l-249 -3v-429q0 -114 -7 -160q82 -4 128 -4zM256 1204q0 94 7 148l-148 -9v93h483q384 2 610 -180t226 -541q0 -298 -205.5 -506.5t-574.5 -208.5h-539
v68q103 4 121.5 55t19 96.5t0.5 99.5v350l-217 -3v106h217v432z" />
    <glyph glyph-name="dcroat" unicode="&#x111;" horiz-adv-x="1225" 
d="M583 68q162 0 268 134q-1 49 0 113v590q-92 71 -236 71t-235 -131t-83 -343q10 -303 121.5 -368.5t164.5 -65.5zM852 1286q0 80 6 127l-145 -8v86q170 0 206 22t48 33h59v-260h159v-85l-159 -2v-982q0 -72 -8 -139l145 8v-86h-293q-9 51 -13 107q-129 -140 -325 -140
t-321 140.5t-125 383.5q0 242 148.5 404t377.5 162q134 0 240 -57v197l-330 -4v93h330z" />
    <glyph glyph-name="Emacron" unicode="&#x112;" 
d="M254 1204q0 94 7 148l-148 -9v91h985l10 -359h-67q0 237 -160 275q-48 12 -104 12l-189 -3q-106 -7 -135 -63q-20 -39 -20 -182v-330h384l-15 177h91v-431h-67q0 113 -40 147q-40 35 -144 35h-29q-15 0 -180 -7v-469q0 -114 -7 -160l392 6q144 2 219 73t75 244h70
l-12 -399h-1057v68q125 2 137 114q4 34 4 77v945zM359 1844h543v-115l-543 -8v123z" />
    <glyph glyph-name="emacron" unicode="&#x113;" horiz-adv-x="1110" 
d="M828 120q98 48 152 122l50 -41q-77 -117 -201 -176q-124 -58 -237 -58q-224 0 -365 150t-141 382q0 233 145 396q145 162 371 162q180 0 298 -116t118 -337l-721 -12q-3 -376 183 -483q64 -37 157 -37t191 48zM604 977q-254 0 -301 -299h522q0 196 -119 272
q-42 26 -102 27zM302 1434h543v-115l-543 -8v123z" />
    <glyph glyph-name="Edotaccent" unicode="&#x116;" 
d="M254 1204q0 94 7 148l-148 -9v91h985l10 -359h-67q0 237 -160 275q-48 12 -104 12l-189 -3q-106 -7 -135 -63q-20 -39 -20 -182v-330h384l-15 177h91v-431h-67q0 113 -40 147q-40 35 -144 35h-29q-15 0 -180 -7v-469q0 -114 -7 -160l392 6q144 2 219 73t75 244h70
l-12 -399h-1057v68q125 2 137 114q4 34 4 77v945zM746 1648q0 -25 -10 -48q-9 -22 -24 -38q-15 -17 -35 -26t-42 -9q-45 0 -78 35q-32 35 -32 73q0 63 33 100q33 36 68 36q34 0 54 -10t34 -26q15 -17 23 -39q9 -23 9 -48z" />
    <glyph glyph-name="edotaccent" unicode="&#x117;" horiz-adv-x="1110" 
d="M828 120q98 48 152 122l50 -41q-77 -117 -201 -176q-124 -58 -237 -58q-224 0 -365 150t-141 382q0 233 145 396q145 162 371 162q180 0 298 -116t118 -337l-721 -12q-3 -376 183 -483q64 -37 157 -37t191 48zM604 977q-254 0 -301 -299h522q0 196 -119 272
q-42 26 -102 27zM703 1270q0 -25 -10 -48q-9 -22 -24 -38q-15 -17 -35 -26t-42 -9q-45 0 -78 35q-32 35 -32 73q0 63 33 100q33 36 68 36q34 0 54 -10t34 -26q15 -17 23 -39q9 -23 9 -48z" />
    <glyph glyph-name="Eogonek" unicode="&#x118;" 
d="M1173 -391q-107 -129 -250 -129q-91 0 -151 58t-60 151q0 136 106.5 210t161.5 101h-867v68q103 4 121.5 55t19 96.5t0.5 99.5v885q0 94 7 148l-148 -9v91h985l10 -359h-67q0 242 -109.5 265t-167.5 22l-176 -4q-106 -4 -130.5 -52.5t-24.5 -191.5v-330h384l-15 177h91
v-431h-67q0 127 -49.5 156t-194.5 25l-149 -6v-469q0 -114 -7 -160l392 6q144 2 219 73.5t75 243.5h70l-12 -399h-51q-168 -67 -204.5 -144.5t-36.5 -117.5q0 -69 37 -108.5t97 -39.5q61 0 126 56z" />
    <glyph glyph-name="eogonek" unicode="&#x119;" horiz-adv-x="1110" 
d="M825 678q0 197 -80.5 248t-140.5 51q-254 0 -301 -299h522zM822 -391q-108 -129 -250 -129q-91 0 -151 58t-60 151q0 153 208 278q-211 6 -347 155t-136 380t145.5 393t370.5 162q179 0 297.5 -116.5t118.5 -336.5l-721 -12q-3 -376 122.5 -448t194.5 -72
q115 0 213.5 47.5t152.5 122.5l50 -41q-84 -127 -234 -190q-16 -8 -48 -20q-88 -33 -154.5 -103.5t-66.5 -162.5q0 -91 50.5 -113t76.5 -22q68 0 133 56z" />
    <glyph glyph-name="Ecaron" unicode="&#x11a;" 
d="M255 1204q0 94 7 148l-148 -9v91h985l10 -359h-67q0 237 -160 275q-48 12 -104 12l-189 -3q-106 -7 -135 -63q-20 -39 -20 -182v-330h384l-15 177h91v-431h-67q0 113 -40 147q-40 35 -144 35h-29q-15 0 -180 -7v-469q0 -114 -7 -160l392 6q144 2 219 73t75 244h70
l-12 -399h-1057v68q126 2 138 114q4 34 3 77v945zM683 1528h-4l-377 289l45 69l340 -180h4l348 184l41 -65z" />
    <glyph glyph-name="ecaron" unicode="&#x11b;" horiz-adv-x="1110" 
d="M829 120q98 48 152 122l50 -41q-77 -117 -201 -176q-124 -58 -237 -58q-224 0 -365 150t-141 382q0 233 145 396q145 162 371 162q179 0 297 -116t119 -337l-721 -12q-2 -376 184 -483q64 -37 156 -37q93 0 191 48zM605 977q-254 0 -301 -299h522q0 196 -119 272
q-42 26 -102 27zM565 1174h-4l-305 333l55 66l261 -223h4l264 227l51 -59z" />
    <glyph glyph-name="Gbreve" unicode="&#x11e;" horiz-adv-x="1559" 
d="M778 1467q269 0 456 -113l-9 98h113v-469h-74q-14 189 -136 296q-122 106 -304 106q-221 0 -374 -186q-152 -186 -152 -472q0 -287 153 -474t395 -187q200 0 351 102v448l-144 -8v90h463v-67q-142 -1 -146 -207q0 -24 -1 -37v-313h-56q-84 0 -224 -54q-141 -54 -295 -53
q-312 0 -505 193q-192 193 -192 515q0 321 177 545q124 155 318 216q100 31 186 31zM813 1657q-94 0 -173 54t-127 157l55 24q54 -70 169 -100q37 -10 76 -10q72 0 141 32t104 78l55 -24q-48 -103 -127 -157t-173 -54z" />
    <glyph glyph-name="gbreve" unicode="&#x11f;" horiz-adv-x="1133" 
d="M324 340q-206 96 -206 331q0 73 38 148t98 128q126 110 282 110q157 0 273 -77q29 88 99 144q69 56 136 56q123 0 123 -102q0 -52 -48 -77q-17 -9 -47 -8t-51 21q-22 20 -28 51q-94 -14 -120 -135q110 -101 110 -258q0 -156 -129 -268q-129 -113 -305 -113l-137 10
q-76 0 -117 -33t-41 -56q0 -24 6 -42q12 -39 84 -54q73 -15 215 -21q141 -5 235 -23t158 -54q66 -36 100 -92t34 -139q0 -156 -153 -249t-349 -93q-259 0 -385 82t-126 195q0 84 56 148t133 98q-142 43 -142 161q0 73 57 134t147 77zM547 985q-110 0 -171 -81
q-62 -81 -62 -208q0 -233 139 -307q45 -24 102 -24q110 0 169 78t59 202q-1 227 -135 312q-44 28 -101 28zM234 -254q0 -101 94 -161t259 -60q164 0 266 64t102 155q1 150 -235 178q-72 8 -187 12t-181 15q-118 -77 -118 -203zM539 1237q-137 1 -227 133q-30 44 -50 105
l60 30q50 -94 154 -131q34 -12 69 -12q67 0 127 43q61 43 94 104l55 -24q-90 -248 -282 -248z" />
    <glyph glyph-name="Gcommaaccent" unicode="&#x122;" horiz-adv-x="1559" 
d="M778 1467q269 0 456 -113l-9 98h113v-469h-74q-14 189 -136 296q-122 106 -304 106q-221 0 -374 -186q-152 -186 -152 -472q0 -287 153 -474t395 -187q200 0 351 102v448l-144 -8v90h463v-67q-142 -1 -146 -207q0 -24 -1 -37v-313h-56q-84 0 -224 -54q-141 -54 -295 -53
q-312 0 -505 193q-192 193 -192 515q0 321 177 545q124 155 318 216q100 31 186 31zM921 -232q0 -66 -44 -146t-117 -153l-54 40q61 113 66 178t-16 166l141 32q24 -51 24 -117z" />
    <glyph glyph-name="gcommaaccent" unicode="&#x123;" horiz-adv-x="1133" 
d="M233 -254q0 -101 94.5 -161t258.5 -60t266 63.5t102 155.5q0 150 -153.5 168t-268.5 22t-181 15q-118 -77 -118 -203zM546 985q-110 0 -171.5 -81.5t-61.5 -207.5q0 -233 92 -282t175.5 -49t142.5 77.5t59 202.5q0 227 -89.5 283.5t-146.5 56.5zM323 340
q-206 96 -206 331q0 73 37.5 148t130.5 156.5t250 81.5t273 -77q30 87 99.5 143.5t135.5 56.5q123 0 123 -102q0 -52 -32 -69t-62 -16t-52 21.5t-28 50.5q-94 -14 -120 -135q110 -101 110 -258q0 -156 -128.5 -268.5t-305.5 -112.5l-137 10q-76 0 -123 -37.5t-31 -87.5
q18 -62 135.5 -70.5t211.5 -12.5t188 -21.5t159 -53t99.5 -92t34.5 -176t-153 -212.5t-349 -93q-259 0 -385 81.5t-126 195.5q0 84 56.5 148t132.5 98q-142 43 -142 161q0 73 57 134t147 77zM439 1312q0 66 44 145.5t117 152.5l54 -40q-61 -113 -66 -178t16 -166l-141 -32
q-24 52 -24 118z" />
    <glyph glyph-name="Imacron" unicode="&#x12a;" horiz-adv-x="686" 
d="M433 244q0 -116 -7 -162l148 8v-90h-461v68q103 4 128 73q13 33 13 79v99v885q0 94 7 148l-148 -9v91h461v-68q-102 -4 -128 -74q-12 -33 -12 -78t-1 -100v-870zM84 1844h543v-115l-543 -8v123z" />
    <glyph glyph-name="imacron" unicode="&#x12b;" horiz-adv-x="575" 
d="M387 217q0 -92 -8 -139l129 6v-84h-418v61q84 0 107 70q14 42 14 180v467q0 67 8 133l-145 -8v86q170 1 226 35q16 10 28 20h59v-827zM9 1434h543v-115l-543 -8v123z" />
    <glyph glyph-name="Iogonek" unicode="&#x12e;" horiz-adv-x="686" 
d="M587 -402q-108 -129 -250 -129q-91 0 -151 58t-60 151q0 142 116 218.5t175 103.5h-304v68q103 4 121.5 55t19 96.5t0.5 99.5v885q0 94 7 148l-148 -9v91h461v-68q-102 -4 -121 -55.5t-19.5 -96.5t-0.5 -100v-870q0 -116 -7 -162l148 8v-90h-12q-122 -45 -174 -95
t-74 -92.5t-22 -84.5q0 -71 37 -110t97 -39q61 0 126 56z" />
    <glyph glyph-name="iogonek" unicode="&#x12f;" horiz-adv-x="575" 
d="M533 -402q-108 -129 -250 -129q-91 0 -151 58t-60 151q0 142 116 218.5t175 103.5h-273v61q84 0 102.5 56t18.5 194v467q0 67 8 133l-145 -8v86q170 0 206 22t48 33h59v-827q0 -92 -8 -139l129 6v-84q-122 -45 -174 -95t-74 -92.5t-22 -84.5q0 -71 37 -110t97 -39
q61 0 126 56zM294 1248q-22 0 -42 9.5t-35 25.5t-23.5 38t-8.5 59.5t33 74t67 36.5t53.5 -9.5t34 -26.5t23 -39.5t8.5 -47.5t-9 -47t-24 -38t-35 -25.5t-42 -9.5z" />
    <glyph glyph-name="Idotaccent" unicode="&#x130;" horiz-adv-x="686" 
d="M433 244q0 -116 -7 -162l148 8v-90h-461v68q103 4 128 73q13 33 13 79v99v885q0 94 7 148l-148 -9v91h461v-68q-102 -4 -128 -74q-12 -33 -12 -78t-1 -100v-870zM451 1647q0 -25 -10 -48q-9 -22 -24 -38q-15 -17 -35 -26t-42 -9q-45 0 -78 35q-32 35 -32 73q0 63 33 100
q33 36 68 36q34 0 54 -10t34 -26q15 -17 23 -39q9 -23 9 -48z" />
    <glyph glyph-name="dotlessi" unicode="&#x131;" horiz-adv-x="575" 
d="M387 217q0 -92 -8 -139l129 6v-84h-418v61q84 0 102.5 56t18.5 194v467q0 67 8 133l-145 -8v86q170 0 206 22t48 33h59v-827z" />
    <glyph glyph-name="Kcommaaccent" unicode="&#x136;" horiz-adv-x="1399" 
d="M434 244q0 -116 -7 -162l148 8v-90h-461v68q103 4 128 73q12 33 12 79t1 99v885q0 94 7 148l-148 -9v91h461v-68q-102 -4 -128 -74q-13 -33 -13 -78v-100v-336h153l256 404q74 114 146 172l-125 -4v84h440v-68q-140 -11 -203 -50q-63 -38 -111 -90t-100 -136l-200 -320
q69 -42 133 -126q18 -24 37 -48l229 -305q149 -199 239 -217q29 -6 62 -6v-68h-250q-52 0 -207 201l-245 331q-102 134 -154 166l-100 -2v-452zM822 -232q0 -66 -44 -146t-117 -153l-54 40q61 113 66 178t-16 166l141 32q24 -51 24 -117z" />
    <glyph glyph-name="kcommaaccent" unicode="&#x137;" horiz-adv-x="1100" 
d="M193 810q0 554 6 603l-145 -8v86q170 1 226 35q16 10 28 20h59v-968h82l250 262q80 83 121 108l-140 -6v82h373v-61q-128 -15 -265 -152l-63 -63l-159 -168q61 -29 127 -111l145 -186q6 -8 20 -28q14 -21 34 -45q119 -149 194 -149v-61h-186q-68 0 -164 125t-170 232
q-75 107 -115 145l-84 -4v-281q0 -92 -8 -139l131 6v-84h-418v61q84 0 106 70q10 33 13 79q2 46 2 600zM597 -232q0 -66 -44 -146t-117 -153l-54 40q61 113 66 178t-16 166l141 32q24 -51 24 -117z" />
    <glyph glyph-name="Lacute" unicode="&#x139;" horiz-adv-x="1184" 
d="M254 1204q0 94 7 148l-148 -9v91h461v-68q-102 -4 -128 -74q-12 -33 -12 -78t-1 -100v-878q0 -114 -7 -160l383 6q198 2 246 186q17 64 17 156h69l-12 -424h-1016v68q103 4 128 73q13 33 13 79v99v885zM258 1556l-45 60l258 246q50 44 92 35q42 -8 55 -42
q24 -64 -63 -116z" />
    <glyph glyph-name="lacute" unicode="&#x13a;" horiz-adv-x="557" 
d="M487 0h-418v61q84 0 107 70q14 42 14 180v969q0 84 6 133l-145 -8v86q170 1 228 35q16 10 28 20h59l2 -1329q0 -81 -10 -139l129 6v-84zM426 1956q18 -24 19 -43q0 -50 -44 -95l-230 -217l-57 47l172 276q39 56 81 56q41 0 59 -24z" />
    <glyph glyph-name="Lcommaaccent" unicode="&#x13b;" horiz-adv-x="1184" 
d="M255 1204q0 94 7 148l-148 -9v91h461v-68q-102 -4 -128 -74q-13 -33 -13 -78v-100v-878q0 -114 -7 -160l383 6q198 2 246 186q17 64 17 156h69l-12 -424h-1016v68q103 4 128 73q12 33 12 79t1 99v885zM701 -232q0 -66 -44 -146t-117 -153l-54 40q61 113 66 178t-16 166
l141 32q24 -51 24 -117z" />
    <glyph glyph-name="lcommaaccent" unicode="&#x13c;" horiz-adv-x="557" 
d="M488 0h-418v61q84 0 107 70q14 42 14 180v969q0 84 6 133l-145 -8v86q170 1 228 35q16 10 28 20h59l2 -1329q0 -81 -10 -139l129 6v-84zM326 -232q0 -66 -44 -146t-117 -153l-54 40q61 113 66 178t-16 166l141 32q24 -51 24 -117z" />
    <glyph glyph-name="Lcaron" unicode="&#x13d;" horiz-adv-x="1184" 
d="M254 1204q0 94 7 148l-148 -9v91h461v-68q-102 -4 -121 -55.5t-19.5 -96.5t-0.5 -100v-878q0 -114 -7 -160l383 6q198 3 230.5 127t32.5 215h69l-12 -424h-1016v68q103 4 121.5 55t19 96.5t0.5 99.5v885zM996 1426q30 -63 24 -113q-17 -160 -169 -313l-54 40
q92 173 80.5 270t-22.5 143z" />
    <glyph glyph-name="lcaron" unicode="&#x13e;" horiz-adv-x="699" 
d="M486 0h-418v61q105 1 116 107q5 46 5 143v969q0 78 6 133l-145 -8v86q121 1 174 15t82 40h59v-1329l1 -36q0 -49 -9 -103l129 6v-84zM717 1485q0 -180 -170 -350l-54 40q77 145 77 273q0 61 -19 140l141 -27q25 -51 25 -76z" />
    <glyph glyph-name="Lslash" unicode="&#x141;" horiz-adv-x="1184" 
d="M253 1204q0 94 7 148l-148 -9v91h461v-68q-92 -4 -116.5 -49t-24.5 -143v-344l208 155v-111l-208 -156v-482q0 -114 -7 -160l383 6q198 3 230.5 127t32.5 215h69l-12 -424h-1016v68q126 3 133.5 76t7.5 115v324l-155 -116v115l155 115v507z" />
    <glyph glyph-name="lslash" unicode="&#x142;" horiz-adv-x="600" 
d="M527 0h-418v61q84 0 102.5 56t18.5 194v280l-176 -128v121l176 126v570q0 84 6 133l-145 -8v86q170 0 207 22t49 33h59l1 -708l159 114v-116l-159 -116l1 -503q0 -81 -10 -139l129 6v-84z" />
    <glyph glyph-name="Nacute" unicode="&#x143;" horiz-adv-x="1561" 
d="M117 68q135 0 135 161l2 1123l-137 -9v91h244l872 -1167h2l2 937q0 86 6 148l-147 -9v91h377v-68q-103 -4 -127 -74q-12 -33 -10 -78v-100l-4 -1147h-99l-889 1195h-3l7 -877q0 -138 -4 -203l148 8v-90h-375v68zM698 1556l-45 60l258 246q50 44 92 35q42 -8 55 -42
q24 -64 -63 -116z" />
    <glyph glyph-name="nacute" unicode="&#x144;" horiz-adv-x="1243" 
d="M76 989q165 1 216 35q14 10 26 20h59q7 -79 9 -124q108 94 244 126q46 10 89 11q178 1 260 -111t82 -347v-382q0 -92 -8 -139l129 6v-84h-418v61q84 0 107 70q14 42 14 180v286q-2 177 -58 267t-171 89q-115 0 -216 -81q-30 -24 -52 -52q1 -18 1 -38v-42l-2 -523
q0 -92 -8 -139l129 6v-84h-418v61q84 0 106 70q12 37 15 180l2 467q0 86 8 133l-145 -8v86zM802 1543q18 -24 18 -43q0 -50 -44 -95l-230 -217l-57 47l172 276q39 56 81 56t60 -24z" />
    <glyph glyph-name="Ncommaaccent" unicode="&#x145;" horiz-adv-x="1561" 
d="M118 68q135 0 135 161l2 1123l-137 -9v91h244l872 -1167h2l2 937q0 86 6 148l-147 -9v91h377v-68q-102 -4 -126 -74q-12 -33 -12 -78t1 -100l-4 -1147h-99l-889 1195h-3l7 -877q0 -138 -4 -203l148 8v-90h-375v68zM918 -232q0 -66 -44 -146t-117 -153l-54 40
q61 113 66 178t-16 166l141 32q24 -51 24 -117z" />
    <glyph glyph-name="ncommaaccent" unicode="&#x146;" horiz-adv-x="1243" 
d="M77 989q165 1 216 35q14 10 26 20h59q7 -79 9 -124q107 94 243 126q46 10 90 11q178 1 260 -111t82 -347v-382q0 -92 -8 -139l129 6v-84h-418v61q84 0 107 70q14 42 14 180v286q-2 177 -58 267t-171 89q-115 0 -216 -81q-30 -24 -52 -52q1 -18 1 -38v-42l-2 -523
q0 -92 -8 -139l129 6v-84h-418v61q85 0 107 70q12 37 14 180l2 467q0 86 8 133l-145 -8v86zM669 -232q0 -66 -44 -146t-117 -153l-54 40q61 113 66 178t-16 166l141 32q24 -51 24 -117z" />
    <glyph glyph-name="Ncaron" unicode="&#x147;" horiz-adv-x="1561" 
d="M118 68q135 0 135 161l2 1123l-137 -9v91h244l872 -1167h2l2 937q0 86 6 148l-147 -9v91h377v-68q-102 -4 -126 -74q-12 -33 -12 -78t1 -100l-4 -1147h-99l-889 1195h-3l7 -877q0 -138 -4 -203l148 8v-90h-375v68zM793 1528h-4l-377 289l45 69l340 -180h4l348 184l41 -65
z" />
    <glyph glyph-name="ncaron" unicode="&#x148;" horiz-adv-x="1243" 
d="M77 989q165 1 216 35q14 10 26 20h59q7 -79 9 -124q107 94 243 126q46 10 90 11q178 1 260 -111t82 -347v-382q0 -92 -8 -139l129 6v-84h-418v61q84 0 107 70q14 42 14 180v286q-2 177 -58 267t-171 89q-115 0 -216 -81q-30 -24 -52 -52q1 -18 1 -38v-42l-2 -523
q0 -92 -8 -139l129 6v-84h-418v61q85 0 107 70q12 37 14 180l2 467q0 86 8 133l-145 -8v86zM645 1174h-4l-305 333l55 66l261 -223h4l264 227l51 -59z" />
    <glyph glyph-name="uni0149" unicode="&#x149;" horiz-adv-x="1243" 
d="M77 989q165 1 216 35q14 10 26 20h59q7 -79 9 -124q107 94 243 126q46 10 90 11q178 1 260 -111t82 -347v-382q0 -92 -8 -139l129 6v-84h-418v61q84 0 107 70q14 42 14 180v286q-2 177 -58 267t-171 89q-115 0 -216 -81q-30 -24 -52 -52q1 -18 1 -38v-42l-2 -523
q0 -92 -8 -139l129 6v-84h-418v61q85 0 107 70q12 37 14 180l2 467q0 86 8 133l-145 -8v86zM187 1765q41 -1 68 -15t45 -39t28 -59t10 -73q0 -85 -44 -204t-108 -183l-55 41q68 83 92 229q8 48 2 96q-57 -25 -101 3q-44 29 -44 85q0 57 33 88t74 31z" />
    <glyph glyph-name="Omacron" unicode="&#x14c;" horiz-adv-x="1626" 
d="M94 716q0 88 19 176t58 172q83 178 244 291q161 112 394 112t398 -111t247 -285t82 -352q0 -179 -78 -347q-128 -281 -414 -373q-100 -32 -226 -32t-230 31q-104 30 -185 84t-139 126t-96 156t-56 174t-18 178zM295 773q0 -95 14 -177q15 -82 43 -159q63 -173 183 -279
q121 -107 292 -107q239 0 372 192t133 447q0 256 -139 468q-149 227 -413 227q-106 0 -201 -56t-158 -146q-63 -91 -95 -203t-31 -207zM529 1844h543v-115l-543 -8v123z" />
    <glyph glyph-name="omacron" unicode="&#x14d;" horiz-adv-x="1198" 
d="M964 908q150 -150 150 -380t-149 -396q-149 -165 -367 -165t-366 147t-148 381t148 398t365 164q217 1 367 -149zM370 855q-77 -124 -77 -320q0 -195 84 -341q84 -145 235 -145q152 0 228 133q64 112 65 307q0 195 -71 331q-83 159 -235 159t-229 -124zM329 1434h543
v-115l-543 -8v123z" />
    <glyph glyph-name="Ohungarumlaut" unicode="&#x150;" horiz-adv-x="1626" 
d="M95 716q0 88 19 176t58 172q83 178 244 291q161 112 394 112t398 -111t247 -285t82 -352q1 -179 -77 -347q-130 -281 -416 -373q-100 -32 -224 -32q-126 0 -230 31q-104 30 -186 84t-140 126t-96 156t-55 174q-18 90 -18 178zM296 773q0 -95 14 -177t42 -159
q63 -173 184 -279q121 -107 292 -107q239 0 372 192t133 447q0 256 -139 468q-150 228 -414 227q-106 0 -200 -56q-95 -56 -158 -146q-62 -91 -94 -203t-32 -207zM1044 1843q47 44 87 19q60 -38 40 -102q-11 -34 -42 -48l-282 -130l-29 52zM696 1839q24 43 60 53t71 -23
q36 -33 12 -85q-8 -17 -26 -33l-189 -170l-54 38z" />
    <glyph glyph-name="ohungarumlaut" unicode="&#x151;" horiz-adv-x="1198" 
d="M966 908q150 -150 149 -380q0 -230 -149 -396q-149 -165 -367 -165t-366 147t-148 381t148 398t365 164q218 1 368 -149zM460 943q-166 -104 -166 -408q0 -195 84 -341q84 -145 235 -145q153 0 229 133q64 112 64 307t-71 331q-83 159 -235 159q-82 0 -140 -36zM906 1556
q68 0 69 -71q0 -43 -69 -90l-266 -181l-39 52l213 237q47 53 92 53zM476 1503q45 55 86 55t54 -22t13 -40q0 -44 -55 -97l-231 -203l-52 49z" />
    <glyph glyph-name="OE" unicode="&#x152;" horiz-adv-x="2093" 
d="M837 1381q-240 0 -391 -180.5t-151 -479.5t152.5 -477t400.5 -178q106 0 225 32v1235q-110 48 -236 48zM1859 1075q0 238 -104 262.5t-159 24.5h-13l-176 -4q-107 -4 -131.5 -52.5t-24.5 -191.5v-330h152q141 0 177.5 24t50 62.5t13.5 106.5h68v-447h-68q0 125 -42.5 150
t-88.5 28t-123 3t-139 -9v-454q0 -108 -6 -160l393 -12h15q278 0 278 323h71l-14 -399h-915q-530 -110 -754.5 126t-224.5 549t148 502t351 255.5t480 1.5h844l10 -359h-68z" />
    <glyph glyph-name="oe" unicode="&#x153;" horiz-adv-x="1806" 
d="M1309 977q-112 0 -176 -74.5t-87 -226.5h469q-4 206 -77 253.5t-129 47.5zM583 49q267 0 267 459q0 74 -39 272.5t-240 198.5q-143 0 -209.5 -123t-66.5 -309q0 -338 105 -418t183 -80zM1358 72q145 0 220.5 67t100.5 103l51 -41q-117 -178 -243 -206t-182 -28
q-118 0 -218.5 53t-156.5 156h-2q-129 -209 -351 -209t-356.5 145t-134.5 384q0 238 134 399.5t361 161.5t362 -217h2q91 149 201 183t184 34q166 0 272 -117t106 -338l-668 -12q0 -518 318 -518z" />
    <glyph glyph-name="Racute" unicode="&#x154;" horiz-adv-x="1286" 
d="M940 1047q0 311 -366 311q-103 0 -128 -67q-12 -32 -12 -77t-1 -100v-394q279 -17 393 70q114 88 114 257zM433 244q0 -116 -7 -162l148 8v-90h-461v68q103 4 128 73q13 33 13 79v99v885q0 94 7 148l-148 -9v91q290 5 454 2q305 -6 438 -99q134 -93 134 -268
q-1 -227 -193 -341q-74 -44 -191 -68q40 -29 72 -74t70 -105l140 -219q67 -106 99 -135q65 -59 151 -59v-68h-258q-82 71 -183 227l-137 219q-14 22 -29 48q-58 99 -108 146q-69 -4 -139 2v-398zM527 1556l-45 60l258 246q50 44 92 35q42 -8 55 -42q24 -64 -63 -116z" />
    <glyph glyph-name="racute" unicode="&#x155;" horiz-adv-x="887" 
d="M510 0h-420v61q84 0 107 70q14 42 14 180v468q0 85 8 132l-145 -6v84h63q107 1 154 35q13 10 25 20h59q6 -69 10 -202q83 138 237 196q52 20 94 19q76 0 116 -33q41 -33 41 -94t-55 -90q-18 -10 -44 -10q-46 0 -74 34t-22 81q-121 3 -230 -132q-34 -42 -61 -93l2 -503
q0 -92 -8 -139l129 6v-84zM692 1500q0 -50 -44 -95l-230 -217l-57 47l172 276q39 56 85 56q38 0 56 -24q18 -25 18 -43z" />
    <glyph glyph-name="Rcommaaccent" unicode="&#x156;" horiz-adv-x="1286" 
d="M941 1047q0 311 -366 311q-103 0 -128 -67q-13 -32 -13 -77v-100v-394q279 -17 393 70q114 88 114 257zM434 244q0 -116 -7 -162l148 8v-90h-461v68q103 4 128 73q12 33 12 79t1 99v885q0 94 7 148l-148 -9v91q290 5 454 2q305 -6 438 -99q134 -93 134 -268
q0 -227 -192 -341q-74 -44 -192 -68q40 -29 72 -74t70 -105l140 -219q67 -106 99 -135q65 -59 151 -59v-68h-258q-82 71 -183 227l-137 219q-14 22 -29 48q-58 99 -108 146q-69 -4 -139 2v-398zM731 -232q0 -66 -44 -146t-117 -153l-54 40q61 113 66 178t-16 166l141 32
q24 -51 24 -117z" />
    <glyph glyph-name="rcommaaccent" unicode="&#x157;" horiz-adv-x="887" 
d="M511 0h-420v61q84 0 107 70q14 42 14 180v468q0 85 8 132l-145 -6v84h63q107 1 154 35q13 10 25 20h59q6 -69 10 -202q83 138 237 196q51 20 93 19q76 0 117 -33t41 -94t-55 -90q-19 -10 -45 -10q-46 0 -73 34q-28 34 -22 81q-121 3 -230 -132q-34 -42 -61 -93l2 -503
q0 -92 -8 -139l129 6v-84zM491 -232q0 -66 -44 -146t-117 -153l-54 40q61 113 66 178t-16 166l141 32q24 -51 24 -117z" />
    <glyph glyph-name="Rcaron" unicode="&#x158;" horiz-adv-x="1286" 
d="M941 1047q0 311 -366 311q-103 0 -128 -67q-13 -32 -13 -77v-100v-394q279 -17 393 70q114 88 114 257zM434 244q0 -116 -7 -162l148 8v-90h-461v68q103 4 128 73q12 33 12 79t1 99v885q0 94 7 148l-148 -9v91q290 5 454 2q305 -6 438 -99q134 -93 134 -268
q0 -227 -192 -341q-74 -44 -192 -68q40 -29 72 -74t70 -105l140 -219q67 -106 99 -135q65 -59 151 -59v-68h-258q-82 71 -183 227l-137 219q-14 22 -29 48q-58 99 -108 146q-69 -4 -139 2v-398zM643 1528h-4l-377 289l45 69l340 -180h4l348 184l41 -65z" />
    <glyph glyph-name="rcaron" unicode="&#x159;" horiz-adv-x="887" 
d="M511 0h-420v61q84 0 107 70q14 42 14 180v468q0 85 8 132l-145 -6v84h63q107 1 154 35q13 10 25 20h59q6 -69 10 -202q83 138 237 196q51 20 93 19q76 0 117 -33t41 -94t-55 -90q-19 -10 -45 -10q-46 0 -73 34q-28 34 -22 81q-121 3 -230 -132q-34 -42 -61 -93l2 -503
q0 -92 -8 -139l129 6v-84zM515 1174h-4l-305 333l55 66l261 -223h4l264 227l51 -59z" />
    <glyph glyph-name="Sacute" unicode="&#x15a;" horiz-adv-x="1161" 
d="M991 1449v-449h-74q-17 258 -208 352q-66 32 -143 33q-136 1 -206 -69t-69 -156q-1 -86 33 -136q34 -52 89 -92t125 -73t143 -67q185 -84 268 -160q122 -112 122 -281t-127 -276q-127 -108 -346 -108q-218 0 -371 105l10 -88h-106l-12 436h79q12 -176 123 -272
q111 -95 279 -95q126 0 210 68q85 68 85 194q-1 175 -245 293q-70 34 -141 68q-187 88 -265 158q-120 109 -121 272q-1 130 83 232q105 128 325 129q220 0 364 -106l-8 88h104zM444 1556l-45 60l258 246q50 44 92 35q42 -8 55 -42q24 -64 -63 -116z" />
    <glyph glyph-name="sacute" unicode="&#x15b;" horiz-adv-x="948" 
d="M169 338q8 -127 96 -209t192 -82q104 -1 152 29q49 30 69 60t20 76t-26 80t-66 62q-42 26 -96 47t-108 43q-138 55 -204 111q-92 80 -92 198q0 117 72 198q94 106 278 106q142 0 255 -88l-5 78h86v-359h-64q-15 194 -148 266q-48 26 -105 26q-101 0 -155 -45
q-53 -45 -53 -102q-1 -58 25 -94t68 -64q42 -29 96 -51t110 -46q146 -61 206 -112q93 -80 93 -212t-106 -209q-106 -78 -268 -78t-294 90l7 -71h-86l-12 352h63zM654 1543q18 -24 19 -43q0 -50 -44 -95l-230 -217l-57 47l172 276q39 56 81 56q41 0 59 -24z" />
    <glyph glyph-name="Scedilla" unicode="&#x15e;" horiz-adv-x="1161" 
d="M991 1449v-449h-74q-17 259 -145.5 322t-205.5 63q-136 0 -205.5 -69.5t-69.5 -155.5t33.5 -137t88.5 -91t125 -73t199 -92.5t231.5 -153.5t102.5 -254q0 -161 -105 -264.5t-293 -123.5l-41 -123q58 36 130 36t109.5 -36t37.5 -88t-20 -85t-87 -84.5t-295 -84.5l-12 69
q171 30 208.5 78.5t37.5 78.5q0 56 -54 60t-104 -30l-69 34l46 172q-199 9 -333 104l10 -88h-106l-12 436h79q12 -176 123 -271.5t279 -95.5q126 0 210.5 68t84.5 194q0 175 -157 251t-287 136.5t-229 150.5t-99 253q0 130 94 245.5t314 115.5t364 -106l-8 88h104z" />
    <glyph glyph-name="scedilla" unicode="&#x15f;" horiz-adv-x="948" 
d="M650 -116q72 0 109 -36t37 -88t-20 -85t-87 -84.5t-295 -84.5l-12 69q171 30 208.5 78.5t37.5 78.5q0 56 -54 60t-104 -30l-69 34l47 174q-147 14 -251 87l7 -71h-86l-12 352h63q8 -127 96 -209t192 -82t152 29.5t68.5 59.5t20.5 76t-25.5 80.5t-67 61t-95 47.5
t-150.5 59.5t-175.5 106.5t-78.5 186q0 117 83 210.5t267 93.5q142 0 255 -88l-5 78h86v-359h-64q-15 194 -105.5 243t-147.5 49q-101 0 -154.5 -45t-53.5 -102q0 -58 25.5 -94t67.5 -64t96 -50.5t155 -65t177.5 -108t76.5 -190.5t-88 -201.5t-217 -89.5l-41 -122
q59 36 131 36z" />
    <glyph glyph-name="Scaron" unicode="&#x160;" horiz-adv-x="1161" 
d="M991 1449v-449h-74q-17 258 -208 352q-66 32 -143 33q-136 1 -206 -69t-69 -156q-1 -86 33 -136q34 -52 89 -92t125 -73t143 -67q185 -84 268 -160q122 -112 122 -281t-127 -276q-127 -108 -346 -108q-218 0 -371 105l10 -88h-106l-12 436h79q12 -176 123 -272
q111 -95 279 -95q126 0 210 68q85 68 85 194q-1 175 -245 293q-70 34 -141 68q-187 88 -265 158q-120 109 -121 272q-1 130 83 232q105 128 325 129q220 0 364 -106l-8 88h104zM565 1528h-4l-377 289l45 69l340 -180h4l348 184l41 -65z" />
    <glyph glyph-name="scaron" unicode="&#x161;" horiz-adv-x="948" 
d="M169 338q8 -127 96 -209t192 -82q104 -1 152 29q49 30 69 60t20 76t-26 80t-66 62q-42 26 -96 47t-108 43q-138 55 -204 111q-92 80 -92 198q0 117 72 198q94 106 278 106q142 0 255 -88l-5 78h86v-359h-64q-15 194 -148 266q-48 26 -105 26q-101 0 -155 -45
q-53 -45 -53 -102q-1 -58 25 -94t68 -64q42 -29 96 -51t110 -46q146 -61 206 -112q93 -80 93 -212t-106 -209q-106 -78 -268 -78t-294 90l7 -71h-86l-12 352h63zM467 1174h-4l-305 333l55 66l261 -223h4l264 227l51 -59z" />
    <glyph glyph-name="uni0162" unicode="&#x162;" horiz-adv-x="1311" 
d="M798 -116q72 0 109.5 -36t37.5 -88t-20 -85t-87 -84.5t-295 -84.5l-12 69q171 30 208.5 78.5t37.5 78.5q0 56 -54 60t-104 -30l-69 34l55 204h-179v68q101 4 120 56.5t20 97.5t2 97v1037h-212q-185 0 -210 -132t-25 -223h-76l12 433h1194l12 -433h-77q-4 194 -60 277
t-207 81h-176v-1115q0 -110 -6 -162l170 8v-90h-188l-51 -152q58 36 130 36z" />
    <glyph glyph-name="uni0163" unicode="&#x163;" horiz-adv-x="793" 
d="M578 -116q72 0 109.5 -36t37.5 -88t-20 -85t-87 -84.5t-295 -84.5l-12 69q171 30 208.5 78.5t37.5 78.5q0 56 -54 60t-104 -30l-69 34l49 184q-186 57 -179 365v591h-157v88q98 2 166.5 89t101.5 198h70l-1 -287h345v-80l-345 -4q-1 -133 -1 -156l-1 -112v-172l-1 -130
q0 -147 25.5 -198.5t55 -70t74.5 -18.5q114 0 197 123l55 -45q-111 -162 -190.5 -177.5t-105.5 -16.5l-40 -119q58 36 130 36z" />
    <glyph glyph-name="Tcaron" unicode="&#x164;" horiz-adv-x="1311" 
d="M908 0h-481v68q101 4 127 76q12 34 12 78v97l3 1038l-212 -1q-185 0 -223 -198q-12 -66 -12 -157h-76l12 433h1194l12 -433h-77q-4 194 -60 276q-56 83 -207 83l-173 -1l-3 -1115q0 -110 -6 -162l170 8v-90zM653 1528h-4l-377 289l45 69l340 -180h4l348 184l41 -65z" />
    <glyph glyph-name="tcaron" unicode="&#x165;" horiz-adv-x="793" 
d="M200 936h-157v88q98 2 166.5 89t101.5 198h70l-1 -287h345v-80l-345 -4q-1 -133 -1 -156l-1 -112v-172l-1 -130q0 -147 25.5 -198.5t55 -70t74.5 -18.5q114 0 197 123l55 -45q-128 -194 -309 -194q-220 0 -248.5 148t-26.5 230v591zM757 1584q30 -63 24 -113
q-17 -160 -169 -313l-54 40q92 173 80.5 270t-22.5 143z" />
    <glyph glyph-name="Umacron" unicode="&#x16a;" horiz-adv-x="1540" 
d="M202 1114q0 158 8 238l-147 -6v88h460v-68q-91 0 -123 -60q-18 -34 -18 -102v-516q0 -176 22 -268q42 -170 135 -253t267 -83q213 0 316 145t108 400l8 575q0 86 6 148l-147 -9v91h381v-68q-103 -4 -129 -74q-13 -33 -13 -78v-100l-4 -475q-3 -466 -292 -617
q-105 -55 -264 -55q-316 0 -445 171t-129 560v416zM529 1844h543v-115l-543 -8v123z" />
    <glyph glyph-name="umacron" unicode="&#x16b;" horiz-adv-x="1223" 
d="M856 123q-156 -156 -354 -156q-154 1 -235 101t-81 346v364q0 86 8 133l-141 -6v84h64q130 0 190 55h59v-624q0 -270 119 -328q42 -20 92 -20q85 0 158 48t115 110v525q0 98 10 156l-147 -6v84h63q131 0 191 55h59l-2 -774q0 -108 -8 -192l147 8v-86h-293q-11 75 -14 123
zM311 1434h543v-115l-543 -8v123z" />
    <glyph glyph-name="Uring" unicode="&#x16e;" horiz-adv-x="1540" 
d="M203 1114q0 158 8 238l-147 -6v88h460v-68q-90 0 -122 -60q-18 -34 -19 -102v-516q1 -176 23 -268q42 -170 134 -253q93 -83 267 -83q213 0 316 145t108 400l8 575q0 86 6 148l-147 -9v91h381v-68q-103 -4 -129 -74q-12 -33 -12 -78t-1 -100l-4 -475q-3 -466 -292 -617
q-105 -55 -264 -55q-316 0 -445 171t-129 560v416zM935 1920q61 -49 61 -139q0 -89 -60 -147q-60 -57 -138 -57q-134 -1 -186 107q-18 36 -17 84q-1 48 17 84t46 62q59 55 137 55q79 0 140 -49zM799 1905q-40 1 -68 -31t-28 -76q0 -75 26 -116t68 -41q41 1 66 33t25 93
t-24 99t-65 39z" />
    <glyph glyph-name="uring" unicode="&#x16f;" horiz-adv-x="1223" 
d="M857 123q-155 -156 -353 -156q-154 1 -236 101q-81 100 -81 346v364q0 86 8 133l-141 -6v84h64q130 0 190 55h59v-624q0 -270 119 -328q42 -20 92 -20q85 0 158 48t115 110v525q0 98 10 156l-147 -6v84h63q131 0 191 55h59l-2 -774q0 -108 -8 -192l147 8v-86h-293
q-11 75 -14 123zM726 1510q61 -49 61 -139q0 -89 -60 -147q-60 -57 -138 -57q-133 -1 -185 107q-18 36 -18 84t18 84t45 62q59 55 137 55q79 0 140 -49zM590 1495q-40 1 -68 -31t-28 -76q0 -75 26 -116t68 -41q41 1 66 33t25 93q-1 61 -25 99t-64 39z" />
    <glyph glyph-name="Uhungarumlaut" unicode="&#x170;" horiz-adv-x="1540" 
d="M203 1114q0 158 8 238l-147 -6v88h460v-68q-90 0 -122 -60q-18 -34 -19 -102v-516q1 -176 23 -268q42 -170 134 -253q93 -83 267 -83q213 0 316 145t108 400l8 575q0 86 6 148l-147 -9v91h381v-68q-103 -4 -129 -74q-12 -33 -12 -78t-1 -100l-4 -475q-3 -466 -292 -617
q-105 -55 -264 -55q-316 0 -445 171t-129 560v416zM1042 1843q47 44 87 19q60 -38 40 -102q-11 -34 -42 -48l-282 -130l-29 52zM694 1839q24 43 60 53t71 -23q36 -33 12 -85q-8 -17 -26 -33l-189 -170l-54 38z" />
    <glyph glyph-name="uhungarumlaut" unicode="&#x171;" horiz-adv-x="1223" 
d="M857 123q-155 -156 -353 -156q-154 1 -236 101q-81 100 -81 346v364q0 86 8 133l-141 -6v84h64q130 0 190 55h59v-624q0 -270 119 -328q42 -20 92 -20q85 0 158 48t115 110v525q0 98 10 156l-147 -6v84h63q131 0 191 55h59l-2 -774q0 -108 -8 -192l147 8v-86h-293
q-11 75 -14 123zM892 1556q68 0 69 -71q0 -43 -69 -90l-266 -181l-39 52l213 237q47 53 92 53zM462 1503q45 55 86 55t54 -22t13 -40q0 -44 -55 -97l-231 -203l-52 49z" />
    <glyph glyph-name="Uogonek" unicode="&#x172;" horiz-adv-x="1540" 
d="M1044 -390q-108 -129 -250 -129q-91 0 -151 58t-60 151q0 151 206 277h-8q-321 0 -450 171t-129 560v416q0 158 8 238l-147 -6v88h460v-68q-90 0 -115.5 -47t-25.5 -115v-516q0 -176 32 -307t125.5 -214t266.5 -83q213 0 316.5 145.5t107.5 399.5l8 575q0 86 6 148
l-147 -9v91h381v-68q-103 -4 -122.5 -55.5t-21 -96.5t-2.5 -100v-475q-3 -348 -115.5 -469t-197.5 -158q-126 -42 -198 -117.5t-72 -167.5t50.5 -114t76.5 -22q68 0 133 56z" />
    <glyph glyph-name="uogonek" unicode="&#x173;" horiz-adv-x="1223" 
d="M1188 -401q-108 -129 -250 -129q-91 0 -151 58t-60 151q0 139 115 216.5t174 104.5h-146q-11 75 -14 123q-156 -156 -354 -156q-154 0 -235 100.5t-81 346.5v364q0 86 8 133l-141 -6v84h64q130 0 190 55h59v-624q0 -268 118 -327.5t221.5 7.5t144.5 130v525q0 98 10 156
l-147 -6v84h63q131 0 191 55h57v-774q0 -108 -8 -192l147 8v-86h-3q-187 -69 -227 -149.5t-40 -121.5q0 -71 37 -110t97 -39q61 0 126 56z" />
    <glyph glyph-name="Ydieresis" unicode="&#x178;" horiz-adv-x="1298" 
d="M-12 1434h528v-68q-133 0 -154 -59t46 -164q199 -320 291 -447h4q298 568 322 603q23 35 38 51l-162 -7v91h418v-68q-97 -6 -166 -70q-35 -32 -67 -80t-327 -602q-4 -370 -2 -425q1 -55 -5 -107l170 8v-90h-481v68q101 4 127 76q12 34 12 78v97l1 234l-355 563
q-93 144 -111 232l-127 -5v91zM548 1627q-33 -38 -68 -38q-34 0 -54 10q-20 9 -35 27t-24 42t-9 50q0 27 9 51t25 42q16 19 36 29t43 10t43 -10t35 -29q32 -38 32 -93q0 -53 -33 -91zM916 1627q-33 -38 -68 -38q-34 0 -54 10q-20 9 -35 27t-24 42t-9 50q0 27 9 51t25 42
q16 19 36 29t43 10t43 -10t35 -29q32 -38 32 -93q0 -53 -33 -91z" />
    <glyph glyph-name="Zacute" unicode="&#x179;" horiz-adv-x="1249" 
d="M183 1010h-70l12 424h1016v-72l-735 -1116q-78 -112 -140 -170l498 8q222 3 294 187q24 63 24 149h69l-12 -420h-1051v94q393 548 678 1002q120 191 180 262l-522 -8q-183 -9 -226 -190q-15 -63 -15 -150zM512 1556l-45 60l258 246q50 44 92 35q42 -8 55 -42
q24 -64 -63 -116z" />
    <glyph glyph-name="zacute" unicode="&#x17a;" horiz-adv-x="1047" 
d="M82 0v84q620 798 646 828t42 40l-385 -6q-148 -4 -188 -178q-12 -52 -21 -111h-63l24 367h803v-66l-577 -759q-53 -70 -107 -115l395 -6q169 -3 221 179q16 54 25 116h60l-25 -373h-850zM694 1543q18 -24 19 -43q0 -50 -44 -95l-230 -217l-57 47l172 276q39 56 81 56
q41 0 59 -24z" />
    <glyph glyph-name="Zdotaccent" unicode="&#x17b;" horiz-adv-x="1249" 
d="M183 1010h-70l12 424h1016v-72l-735 -1116q-78 -112 -140 -170l498 8q222 3 294 187q24 63 24 149h69l-12 -420h-1051v94q393 548 678 1002q120 191 180 262l-522 -8q-183 -9 -226 -190q-15 -63 -15 -150zM704 1647q0 -25 -10 -48q-9 -22 -24 -38q-15 -17 -35 -26t-42 -9
q-45 0 -78 35q-32 35 -32 73q0 63 33 100q33 36 68 36q34 0 54 -10t34 -26q15 -17 23 -39q9 -23 9 -48z" />
    <glyph glyph-name="zdotaccent" unicode="&#x17c;" horiz-adv-x="1047" 
d="M82 0v84q620 798 646 828t42 40l-385 -6q-148 -4 -188 -178q-12 -52 -21 -111h-63l24 367h803v-66l-577 -759q-53 -70 -107 -115l395 -6q169 -3 221 179q16 54 25 116h60l-25 -373h-850zM631 1270q0 -25 -10 -48q-9 -22 -24 -38q-15 -17 -35 -26t-42 -9q-45 0 -78 35
q-32 35 -32 73q0 63 33 100q33 36 68 36q34 0 54 -10t34 -26q15 -17 23 -39q9 -23 9 -48z" />
    <glyph glyph-name="Zcaron" unicode="&#x17d;" horiz-adv-x="1249" 
d="M183 1010h-70l12 424h1016v-72l-735 -1116q-78 -112 -140 -170l498 8q222 3 294 187q24 63 24 149h69l-12 -420h-1051v94q393 548 678 1002q120 191 180 262l-522 -8q-183 -9 -226 -190q-15 -63 -15 -150zM610 1528h-4l-377 289l45 69l340 -180h4l348 184l41 -65z" />
    <glyph glyph-name="zcaron" unicode="&#x17e;" horiz-adv-x="1047" 
d="M82 0v84q620 798 646 828t42 40l-385 -6q-148 -4 -188 -178q-12 -52 -21 -111h-63l24 367h803v-66l-577 -759q-53 -70 -107 -115l395 -6q169 -3 221 179q16 54 25 116h60l-25 -373h-850zM501 1174h-4l-305 333l55 66l261 -223h4l264 227l51 -59z" />
    <glyph glyph-name="florin" unicode="&#x192;" horiz-adv-x="702" 
d="M647 1434q0 24 2 34q-17 10 -57 10t-75.5 -33t-67.5 -116t-47 -303h294l-6 -80l-294 -4q-8 -106 -12.5 -222t-14.5 -238t-18.5 -248t-34 -313.5t-118.5 -331.5t-288 -144q-108 0 -133 41t-25 66q0 94 88 94q38 0 60 -26t22 -50t-1 -30q20 -15 63 -15t75.5 37.5
t53.5 104.5t34 159t21.5 200.5t15.5 229t16 238.5t16.5 229t19.5 217l-178 -2l10 88h179q36 249 130 389.5t284 140.5q96 0 124 -39t28 -71t-20 -58t-60 -26t-63 24t-23 48z" />
    <glyph glyph-name="Scommaaccent" unicode="&#x218;" horiz-adv-x="1161" 
d="M992 1449v-449h-74q-17 258 -208 352q-66 32 -143 33q-135 1 -205 -69t-70 -156t34 -136q34 -52 88 -92q55 -40 125 -73t143 -67q185 -84 268 -160q122 -112 122 -281t-127 -276q-127 -108 -346 -108q-218 0 -371 105l10 -88h-106l-12 436h79q12 -176 123 -272
q111 -95 279 -95q126 0 210 68q85 68 85 194q0 175 -244 293q-70 34 -142 68q-188 88 -266 158q-120 109 -120 272q0 130 84 232q105 128 324 129q220 0 364 -106l-8 88h104zM749 -232q0 -66 -44 -146t-117 -153l-54 40q61 113 66 178t-16 166l141 32q24 -51 24 -117z" />
    <glyph glyph-name="scommaaccent" unicode="&#x219;" horiz-adv-x="948" 
d="M170 338q8 -127 96 -209t192 -82q104 -1 152 29t68 60t21 76t-25 80t-68 62q-42 26 -94 47q-54 21 -110 43q-138 55 -202 111q-92 80 -93 198q0 117 72 198q94 106 278 106q142 0 255 -88l-5 78h86v-359h-64q-15 194 -148 266q-48 26 -105 26q-101 0 -155 -45
q-53 -45 -53 -102q0 -58 26 -94t67 -64q42 -29 96 -51t110 -46q146 -61 206 -112q93 -80 93 -212t-106 -209q-106 -78 -268 -78t-294 90l7 -71h-86l-12 352h63zM636 -232q0 -66 -44 -146t-117 -153l-54 40q61 113 66 178t-16 166l141 32q24 -51 24 -117z" />
    <glyph glyph-name="uni021A" unicode="&#x21a;" horiz-adv-x="1311" 
d="M908 0h-481v68q101 4 127 76q12 34 12 78v97l3 1038l-212 -1q-185 0 -223 -198q-12 -66 -12 -157h-76l12 433h1194l12 -433h-77q-4 194 -60 276q-56 83 -207 83l-173 -1l-3 -1115q0 -110 -6 -162l170 8v-90zM785 -232q0 -66 -44 -146t-117 -153l-54 40q61 113 66 178
t-16 166l141 32q24 -51 24 -117z" />
    <glyph glyph-name="uni021B" unicode="&#x21b;" horiz-adv-x="793" 
d="M726 1024v-80l-345 -4q-1 -133 -1 -227l-1 -257l-1 -80v-6q0 -147 26 -198q26 -52 54 -70q30 -18 75 -19q114 0 197 123l55 -45q-128 -194 -309 -194q-284 0 -279 378l4 592l-157 -1v88q98 2 167 89t101 198h70l-1 -287h345zM565 -232q0 -66 -44 -146t-117 -153l-54 40
q61 113 66 178t-16 166l141 32q24 -51 24 -117z" />
    <glyph glyph-name="circumflex" unicode="&#x2c6;" horiz-adv-x="819" 
d="M418 1593h4l305 -333l-55 -66l-260 223h-4l-265 -209l-51 60z" />
    <glyph glyph-name="caron" unicode="&#x2c7;" horiz-adv-x="819" 
d="M401 1174h-4l-305 333l55 66l261 -223h4l264 227l51 -59z" />
    <glyph glyph-name="uni02C9" unicode="&#x2c9;" horiz-adv-x="600" 
d="M22 1349h543v-115l-543 -8v123z" />
    <glyph glyph-name="breve" unicode="&#x2d8;" horiz-adv-x="743" 
d="M369 1237q-137 0 -197.5 88.5t-79.5 149.5l60 30q50 -94 119 -118.5t120 -24.5t111.5 43t93.5 104l55 -24q-90 -248 -282 -248z" />
    <glyph glyph-name="dotaccent" unicode="&#x2d9;" horiz-adv-x="406" 
d="M317 1270q0 -25 -10 -48q-9 -22 -24 -38q-15 -17 -35 -26t-42 -9q-45 0 -78 35q-32 35 -32 73q0 63 33 100q33 36 68 36q34 0 54 -10t34 -26q15 -17 23 -39q9 -23 9 -48z" />
    <glyph glyph-name="ring" unicode="&#x2da;" horiz-adv-x="651" 
d="M465 1509.5q61 -49.5 61 -138.5t-59.5 -146.5t-166 -57.5t-141 71.5t-34.5 119.5t17.5 84t61 76.5t121.5 40.5q79 0 140 -49.5zM329 1495q-40 0 -68 -31.5t-28 -75.5q0 -75 26 -116t68 -41q41 0 66 32.5t25 93.5t-24.5 99.5t-64.5 38.5z" />
    <glyph glyph-name="ogonek" unicode="&#x2db;" horiz-adv-x="645" 
d="M553 -402q-108 -129 -250 -129q-91 0 -151 58t-60 142q0 150 130 263t306 172v-54q-187 -79 -228.5 -175t-41.5 -142q0 -76 37 -115t97 -39q61 0 126 56z" />
    <glyph glyph-name="tilde" unicode="&#x2dc;" horiz-adv-x="831" 
d="M283 1364q-95 0 -150 -86l-61 35q25 70 88 122t116 53t89 -16t66 -37.5t57.5 -37.5t67.5 -17t80 27t64 72l60 -31q-48 -143 -115 -169t-105 -26t-74.5 17.5t-68 38t-59 38t-55.5 17.5z" />
    <glyph glyph-name="hungarumlaut" unicode="&#x2dd;" horiz-adv-x="797" 
d="M676 1556q68 0 69 -71q0 -43 -69 -90l-266 -181l-39 52l213 237q47 53 92 53zM246 1503q45 55 86 55t54 -22t13 -40q0 -44 -55 -97l-231 -203l-52 49z" />
    <glyph glyph-name="Gamma" unicode="&#x393;" horiz-adv-x="1122" 
d="M254 1204q0 94 7 148l-148 -9v91h950l11 -359h-68q0 242 -112.5 265t-170.5 22l-149 -4q-103 -4 -121.5 -56t-19 -97.5t-0.5 -98.5v-862q0 -116 -7 -162l209 8v-90h-522v68q103 4 121.5 55t19 96.5t0.5 99.5v885z" />
    <glyph glyph-name="Delta" unicode="&#x394;" horiz-adv-x="1430" 
d="M226 124l921 -6l-474 1216zM780 1467l594 -1467h-1317l560 1467h163z" />
    <glyph glyph-name="Pi" unicode="&#x3a0;" horiz-adv-x="1557" 
d="M254 1204q0 94 7 148l-148 -9v91h1332v-68q-102 -4 -121 -55.5t-19.5 -96.5t-0.5 -100v-870q0 -110 -6 -162l147 8v-90h-461v68q104 4 122.5 55t19 96.5t0.5 99.5v1034l-557 -7q-114 -5 -124.5 -66.5t-11.5 -97.5v-938q0 -116 -7 -162l148 8v-90h-461v68q103 4 121.5 55
t19 96.5t0.5 99.5v885z" />
    <glyph glyph-name="Omega" unicode="&#x3a9;" horiz-adv-x="1599" 
d="M1270 723q0 281 -126 471.5t-310 190.5t-294 -87t-166 -229.5t-56 -291.5q0 -273 119.5 -439t267.5 -184v-154h-538l-11 276h62q0 -85 56.5 -114t195.5 -29h145v2q-211 58 -354.5 236.5t-143.5 404.5q0 268 178 479.5t508 211.5t502 -209.5t172 -481.5
q0 -214 -150.5 -391t-344.5 -250v-2h170q139 0 180.5 21.5t56.5 49.5t15 72h61l-12 -276h-543v154q144 39 252 201t108 368z" />
    <glyph glyph-name="pi" unicode="&#x3c0;" horiz-adv-x="1186" 
d="M165 -33q-114 0 -114 89t100 89q27 0 61 -31q123 38 123 194v602q-133 0 -223 -45l-33 45q118 139 275 139q122 0 301 -19.5t255 -19.5t173 47l35 -43q-70 -96 -170 -129l-2 -617q0 -191 83 -191q40 0 74 25l25 -33q-46 -63 -105 -82.5t-101 -19.5t-98.5 39t-56.5 174
l1 111l3 582q-99 5 -184 17t-168 17v-303q0 -304 -51 -457q-29 -84 -88.5 -132t-114.5 -48z" />
    <glyph glyph-name="uni0400" unicode="&#x400;" 
d="M255 1204q0 94 7 148l-148 -9v91h985l10 -359h-67q0 237 -160 275q-48 12 -104 12l-189 -3q-106 -7 -135 -63q-20 -39 -20 -182v-330h384l-15 177h91v-431h-67q0 113 -40 147q-40 35 -144 35h-29q-15 0 -180 -7v-469q0 -114 -7 -160l392 6q144 2 219 73t75 244h70
l-12 -399h-1057v68q126 2 138 114q4 34 3 77v945zM509 1815q-44 46 -44 80q-1 34 13 51q24 31 65 31t81 -56l172 -276l-57 -47z" />
    <glyph glyph-name="uni0401" unicode="&#x401;" 
d="M254 1204q0 94 7 148l-148 -9v91h985l10 -359h-67q0 237 -160 275q-48 12 -104 12l-189 -3q-106 -7 -135 -63q-20 -39 -20 -182v-330h384l-15 177h91v-431h-67q0 113 -40 147q-40 35 -144 35h-29q-15 0 -180 -7v-469q0 -114 -7 -160l392 6q144 2 219 73t75 244h70
l-12 -399h-1057v68q125 2 137 114q4 34 4 77v945zM565 1627q-33 -38 -68 -38q-34 0 -54 10q-20 9 -35 27t-24 42t-9 50q0 27 9 51t25 42q16 19 36 29t43 10t43 -10t35 -29q32 -38 32 -93q0 -53 -33 -91zM933 1627q-33 -38 -68 -38q-34 0 -54 10q-20 9 -35 27t-24 42t-9 50
q0 27 9 51t25 42q16 19 36 29t43 10t43 -10t35 -29q32 -38 32 -93q0 -53 -33 -91z" />
    <glyph glyph-name="uni0402" unicode="&#x402;" horiz-adv-x="1558" 
d="M1018 874q243 0 344.5 -109.5t101.5 -313.5q0 -205 -95 -339.5t-239 -134.5q-104 0 -128 47.5t-24 87.5t28.5 69t64.5 29q58 1 82 -27.5t24 -56.5q0 -29 -11 -55q12 -9 34 -9q44 0 69.5 106t25.5 260q0 342 -324 342q-124 0 -228 -50v-476q0 -110 -6 -162l120 8v-90h-431
v68q101 4 120 56.5t20 97.5t2 97v1037h-212q-185 0 -210 -132t-25 -223h-76l12 433h1194l12 -433h-77q-4 194 -60 277t-207 81h-174v-542q138 57 273 57z" />
    <glyph glyph-name="uni0403" unicode="&#x403;" horiz-adv-x="1122" 
d="M254 1204q0 94 7 148l-148 -9v91h950l11 -359h-68q0 241 -174 277q-52 10 -109 10l-149 -4q-103 -4 -128 -74q-12 -34 -12 -80t-1 -98v-862q0 -116 -7 -162l209 8v-90h-522v68q103 4 128 73q13 33 13 79v99v885zM500 1556l-45 60l258 246q50 44 92 35q42 -8 55 -42
q24 -64 -63 -116z" />
    <glyph glyph-name="uni0404" unicode="&#x404;" horiz-adv-x="1432" 
d="M805 1467q225 0 413 -125l-10 110h111v-475h-74q-22 192 -134.5 299t-306.5 107q-195 0 -343 -164t-164 -435h688l-15 177h91v-431h-67q0 126 -49.5 154.5t-194.5 26.5l-455 -6q6 -276 163.5 -453.5t377.5 -177.5t329.5 89t151.5 146l53 -43q-119 -164 -273 -231.5
t-308 -67.5q-153 0 -281 56.5t-271 209t-143 461.5q0 310 149.5 496.5t296 231.5t265.5 45z" />
    <glyph glyph-name="uni0405" unicode="&#x405;" horiz-adv-x="1161" 
d="M992 1449v-449h-74q-17 258 -208 352q-66 32 -143 33q-135 1 -205 -69t-70 -156t34 -136q34 -52 88 -92q55 -40 125 -73t143 -67q185 -84 268 -160q122 -112 122 -281t-127 -276q-127 -108 -346 -108q-218 0 -371 105l10 -88h-106l-12 436h79q12 -176 123 -272
q111 -95 279 -95q126 0 210 68q85 68 85 194q0 175 -244 293q-70 34 -142 68q-188 88 -266 158q-120 109 -120 272q0 130 84 232q105 128 324 129q220 0 364 -106l-8 88h104z" />
    <glyph glyph-name="uni0406" unicode="&#x406;" horiz-adv-x="686" 
d="M434 244q0 -116 -7 -162l148 8v-90h-461v68q103 4 128 73q12 33 12 79t1 99v885q0 94 7 148l-148 -9v91h461v-68q-102 -4 -128 -74q-13 -33 -13 -78v-100v-870z" />
    <glyph glyph-name="uni0407" unicode="&#x407;" horiz-adv-x="686" 
d="M434 244q0 -116 -7 -162l148 8v-90h-461v68q103 4 128 73q12 33 12 79t1 99v885q0 94 7 148l-148 -9v91h461v-68q-102 -4 -128 -74q-13 -33 -13 -78v-100v-870zM593 1694q-31 -36 -61 -36q-32 0 -50 10t-32 26t-22 38t-8 47q0 51 31 87t62 37q33 0 51 -10q18 -11 32 -27
q28 -35 28 -85q0 -51 -31 -87zM251 1694q-31 -36 -61 -36q-32 0 -50 10t-32 26t-22 38t-8 47q0 51 31 87t62 37q33 0 51 -10q18 -11 32 -27q28 -35 28 -85q0 -51 -31 -87z" />
    <glyph glyph-name="uni0408" unicode="&#x408;" horiz-adv-x="764" 
d="M367 285v1067l-209 -9v91h545v-68q-135 0 -153 -123q-6 -37 -5 -80v-663q0 -286 -77 -410q-77 -123 -256 -123q-89 0 -135 29q-81 51 -81 118q0 68 46 94q22 12 45 12q45 0 66 -28q22 -28 22 -57q0 -30 -10 -52q21 -32 66 -32q45 1 68 14t45 55t23 165z" />
    <glyph glyph-name="uni0409" unicode="&#x409;" horiz-adv-x="1956" 
d="M1367 761q-43 0 -187 -6v-513q0 -114 -7 -160q48 -4 57 -4h129q145 0 239.5 86.5t94.5 265.5q0 180 -77.5 240t-141.5 75.5t-107 15.5zM212 112q0 -25 -18 -45q17 -16 35 -16q43 0 90.5 71.5t113.5 292.5t66 672v265h-43l-148 -9v91h1012v-68q-101 -4 -120 -55.5
t-19.5 -96.5t-0.5 -100v-280l115 5q467 19 531.5 -146.5t64.5 -264.5q0 -201 -134 -314.5t-349 -113.5h-548v68q100 2 119.5 53t20.5 96.5t1 101.5v1033h-289q-106 -9 -115 -116v-45q0 -346 -34 -611t-121.5 -439t-238.5 -174q-121 0 -149.5 52.5t-28.5 80.5q0 50 24 81
t57 33q34 1 52.5 -7.5t30.5 -22t17.5 -30.5t5.5 -42z" />
    <glyph glyph-name="uni040A" unicode="&#x40a;" horiz-adv-x="2081" 
d="M1492 761q-43 0 -187 -6v-513q0 -114 -7 -160q48 -4 58 -4h128q145 0 239.5 86.5t94.5 265.5q0 180 -77.5 240t-141.5 75.5t-107 15.5zM254 1204q0 94 7 148l-148 -9v91h461v-68q-102 -4 -121 -55.5t-19.5 -96.5t-0.5 -100v-278h693v368q0 86 6 148l-148 -9v91h462v-68
q-102 -4 -121 -55.5t-19.5 -96.5t-0.5 -100v-280l115 5q467 19 531.5 -146.5t64.5 -264.5q0 -201 -134 -314.5t-349 -113.5h-548v68q101 2 120.5 53t20 96.5t0.5 101.5v436l-693 -9v-502q0 -116 -7 -162l148 8v-90h-461v68q103 4 121.5 55t19 96.5t0.5 99.5v885z" />
    <glyph glyph-name="uni040B" unicode="&#x40b;" horiz-adv-x="1679" 
d="M1466 82l148 9v-91h-461v68q60 2 89.5 25.5t40.5 75.5t10.5 135.5t0.5 206.5q-3 179 -147.5 229.5t-250 26t-153.5 -46.5v-476q0 -110 -6 -162l170 8v-90h-481v68q101 4 120 56.5t20 97.5t2 97v1037h-212q-185 0 -210 -132t-25 -223h-76l12 433h1194l12 -433h-77
q-4 194 -60 277t-207 81h-174v-542q138 57 277 57t295 -52.5t156 -366.5q0 -313 -7 -373z" />
    <glyph glyph-name="uni040C" unicode="&#x40c;" horiz-adv-x="1399" 
d="M434 244q0 -116 -7 -162l148 8v-90h-461v68q103 4 128 73q12 33 12 79t1 99v885q0 94 7 148l-148 -9v91h461v-68q-102 -4 -128 -74q-13 -33 -13 -78v-100v-336h153l256 404q74 114 146 172l-125 -4v84h440v-68q-140 -11 -203 -50q-63 -38 -111 -90t-100 -136l-200 -320
q69 -42 133 -126q18 -24 37 -48l229 -305q149 -199 239 -217q29 -6 62 -6v-68h-250q-52 0 -207 201l-245 331q-102 134 -154 166l-100 -2v-452zM643 1556l-45 60l258 246q50 44 92 35q42 -8 55 -42q24 -64 -63 -116z" />
    <glyph glyph-name="uni040D" unicode="&#x40d;" horiz-adv-x="1618" 
d="M255 1204q0 94 7 148l-148 -9v91h461v-68q-102 -4 -128 -74q-13 -33 -13 -78v-100v-774l754 931q3 59 5 81l-148 -9v91h461v-68q-102 -4 -128 -74q-12 -33 -12 -78t-1 -100v-870q0 -110 -6 -162l147 8v-90h-461v68q104 4 129 73q12 33 12 79t1 99v822l-753 -940
q-2 -85 -7 -119l148 8v-90h-461v68q103 4 128 73q12 33 12 79t1 99v885zM579 1739q-58 35 -65 77t21 66q54 44 128 -20l258 -246l-45 -60z" />
    <glyph glyph-name="uni040E" unicode="&#x40e;" horiz-adv-x="1250" 
d="M416 109q0 -23 -19 -44q19 -7 55.5 -7t81.5 98.5t71 160.5l-405 802q-64 126 -83 229l-127 -5v91h494v-68q-121 0 -142 -58t34 -165l312 -625q169 416 209 529q94 270 121 303l-161 -7v91h418v-68q-105 -6 -147.5 -58.5t-104.5 -201.5l-331 -801q-76 -184 -123 -240.5
t-88.5 -77.5t-84.5 -21q-178 0 -178 116q0 58 27.5 89t63.5 33t54 -6t30 -21t17.5 -29t5.5 -39zM834 1808.5q23 30.5 68 28.5q46 -1 69.5 -32.5t23.5 -74.5t-25 -79t-68 -61.5t-100.5 -39t-157 -13.5t-190.5 54t-91 141q0 41 23.5 72.5t58.5 32.5q57 2 79.5 -28.5
t22.5 -68.5t-22 -77q51 -51 154 -51t154 51q-22 39 -22 77t23 68.5z" />
    <glyph glyph-name="uni040F" unicode="&#x40f;" horiz-adv-x="1578" 
d="M1145 1190q0 116 7 162l-148 -8v90h461v-68q-103 -4 -121.5 -55t-19 -96.5t-0.5 -99.5v-885q0 -94 -7 -148l148 9v-91h-587v-364h-85q0 173 -24.5 240.5t-56 95.5t-82.5 28h-497v68q103 4 121.5 55t19 96.5t0.5 100.5v870q0 109 6 162l-147 -8v90h461v-68
q-104 -4 -122.5 -55t-19 -96.5t-0.5 -99.5v-1034l557 7q114 5 124.5 66.5t11.5 97.5v938z" />
    <glyph glyph-name="uni0410" unicode="&#x410;" horiz-adv-x="1282" 
d="M510 942q-46 -132 -82 -232t-64 -180h474l-238 644h-4zM371 0h-383v68q82 0 124 71q20 34 36 81t38 104l422 1149h49l457 -1166q57 -133 53 -225l140 8v-90h-469v68q172 3 100 194l-72 192l-533 -12q-42 -120 -60 -181q-33 -109 -62 -179l160 8v-90z" />
    <glyph glyph-name="uni0411" unicode="&#x411;" 
d="M643 741q-112 0 -210 -6v-493q0 -114 -7 -160q48 -4 62 -4h166q151 0 246.5 83t95.5 243q0 337 -353 337zM254 1204q0 94 7 148l-148 -9v91h950l11 -359h-68q0 242 -112.5 265t-170.5 22l-149 -4q-103 -4 -121.5 -56t-19 -97.5t-0.5 -98.5v-292l165 4q469 14 532.5 -147
t63.5 -257q0 -190 -135 -302t-348 -112h-598v68q103 2 121.5 55.5t19 101t0.5 105.5v874z" />
    <glyph glyph-name="uni0412" unicode="&#x412;" 
d="M427 82q48 -4 104 -4h124q151 0 246 80q96 80 96 243q-1 162 -107 243q-88 67 -223 67t-233 -6v-463q0 -114 -7 -160zM463 1323q-29 -41 -29 -158v-381l149 4q164 4 236 91q73 88 73 219q0 78 -30 134t-74 84q-78 48 -187 48t-138 -41zM518 1438q178 0 272 -21
q289 -65 289 -330q-2 -108 -90 -198t-248 -119v-4q218 0 336 -100t118 -275t-135 -283t-348 -108h-598v68q103 2 128 74q12 34 12 82t1 106v860q0 116 7 162l-148 -9v91q226 4 404 4z" />
    <glyph glyph-name="uni0413" unicode="&#x413;" horiz-adv-x="1122" 
d="M254 1204q0 94 7 148l-148 -9v91h950l11 -359h-68q0 242 -112.5 265t-170.5 22l-149 -4q-103 -4 -121.5 -56t-19 -97.5t-0.5 -98.5v-862q0 -116 -7 -162l209 8v-90h-522v68q103 4 121.5 55t19 96.5t0.5 99.5v885z" />
    <glyph glyph-name="uni0414" unicode="&#x414;" horiz-adv-x="1416" 
d="M860 81q104 0 122.5 48t19 92t0.5 98v1033h-314q-109 -6 -118 -95q-19 -418 -64 -720.5t-175 -455.5h529zM1351 -364h-85q0 187 -27 251.5t-59.5 88.5t-83.5 24h-786q-139 0 -154.5 -138t-15.5 -226h-85v445h79q97 0 172 119q132 214 147.5 590.5t19.5 561.5h-50l-148 -9
v91h1046v-68q-102 -4 -121 -55.5t-19.5 -96.5t-0.5 -100v-870q0 -111 -6 -163h177v-445z" />
    <glyph glyph-name="uni0415" unicode="&#x415;" 
d="M255 1204q0 94 7 148l-148 -9v91h985l10 -359h-67q0 237 -160 275q-48 12 -104 12l-189 -3q-106 -7 -135 -63q-20 -39 -20 -182v-330h384l-15 177h91v-431h-67q0 113 -40 147q-40 35 -144 35h-29q-15 0 -180 -7v-469q0 -114 -7 -160l392 6q144 2 219 73t75 244h70
l-12 -399h-1057v68q126 2 138 114q4 34 3 77v945z" />
    <glyph glyph-name="uni0416" unicode="&#x416;" horiz-adv-x="1971" 
d="M896 1204q0 94 7 148l-148 -9v91h461v-68q-102 -4 -121 -55.5t-19.5 -96.5t-0.5 -100v-336h153l236 404q57 100 146 172l-125 -4v84h440v-68q-141 -11 -204 -49t-109 -90t-95 -137l-186 -320q84 -52 117.5 -97.5t52.5 -76.5l179 -291q123 -201 185.5 -219t95.5 -18v-68
h-210q-57 0 -122 76t-95 125l-205 331q-29 47 -57.5 88t-74.5 78l-122 -2v-452q0 -116 -7 -162l148 8v-90h-461v68q103 4 121.5 55t19 96.5t0.5 99.5v377l-122 2q-55 -43 -86.5 -92.5t-45.5 -73.5l-201 -331q-87 -142 -141.5 -171.5t-69.5 -29.5h-220v68q72 0 134.5 49
t147.5 188l178 291q56 91 98.5 123.5t71.5 50.5l-186 320q-95 161 -181 213t-227 63v68h440v-84l-125 4q89 -72 146 -172l236 -404h153v426z" />
    <glyph glyph-name="uni0417" unicode="&#x417;" horiz-adv-x="1255" 
d="M621 725l7 3l-10 13zM1175 392q0 -92 -45.5 -173.5t-157.5 -162t-332 -80.5q-263 0 -393.5 107t-185.5 183l53 43q80 -111 211.5 -173.5t282.5 -62.5t260 88t109 245q0 156 -95 223.5t-286 72.5l-163 -2v90h170q163 4 236 92t73 221q0 213 -101 246.5t-170 33.5
q-289 0 -385 -406h-74v475h111l-10 -110q94 67 179.5 96t193.5 29q207 0 326.5 -95t117.5 -255q-3 -201 -129 -269.5t-210 -83.5v-4q201 -10 307.5 -105t106.5 -263z" />
    <glyph glyph-name="uni0418" unicode="&#x418;" horiz-adv-x="1618" 
d="M254 1204q0 94 7 148l-148 -9v91h461v-68q-102 -4 -121 -55.5t-19.5 -96.5t-0.5 -100v-774l754 931q3 59 5 81l-148 -9v91h461v-68q-102 -4 -121 -55.5t-19.5 -96.5t-0.5 -100v-870q0 -110 -6 -162l147 8v-90h-461v68q104 4 122.5 55t19 96.5t0.5 99.5v822l-753 -940
q-2 -85 -7 -119l148 8v-90h-461v68q103 4 121.5 55t19 96.5t0.5 99.5v885z" />
    <glyph glyph-name="uni0419" unicode="&#x419;" horiz-adv-x="1618" 
d="M254 1204q0 94 7 148l-148 -9v91h461v-68q-102 -4 -121 -55.5t-19.5 -96.5t-0.5 -100v-774l754 931q3 59 5 81l-148 -9v91h461v-68q-102 -4 -121 -55.5t-19.5 -96.5t-0.5 -100v-870q0 -110 -6 -162l147 8v-90h-461v68q104 4 122.5 55t19 96.5t0.5 99.5v822l-753 -940
q-2 -85 -7 -119l148 8v-90h-461v68q103 4 121.5 55t19 96.5t0.5 99.5v885zM974 1808.5q23 30.5 68 28.5q46 -1 69.5 -32.5t23.5 -74.5t-25 -79t-68 -61.5t-100.5 -39t-157 -13.5t-190.5 54t-91 141q0 41 23.5 72.5t58.5 32.5q57 2 79.5 -28.5t22.5 -68.5t-22 -77
q51 -51 154 -51t154 51q-22 39 -22 77t23 68.5z" />
    <glyph glyph-name="uni041A" unicode="&#x41a;" horiz-adv-x="1399" 
d="M254 1204q0 94 7 148l-148 -9v91h461v-68q-102 -4 -121 -55.5t-19.5 -96.5t-0.5 -100v-336h153l256 404q74 114 146 172l-125 -4v84h440v-68q-140 -11 -203.5 -50t-111 -90.5t-99.5 -135.5l-200 -320q69 -43 110 -96.5t60 -77.5l229 -305q149 -200 208.5 -211.5
t92.5 -11.5v-68h-250q-52 0 -207 201l-245 331q-102 134 -154 166l-100 -2v-452q0 -116 -7 -162l148 8v-90h-461v68q103 4 121.5 55t19 96.5t0.5 99.5v885z" />
    <glyph glyph-name="uni041B" unicode="&#x41b;" horiz-adv-x="1432" 
d="M216 114q0 -23 -22 -47q17 -16 35 -16q43 0 90.5 59.5t113.5 262.5t66 674v305h-43l-148 -9v91h1012v-68q-102 -4 -121 -55.5t-19.5 -96.5t-0.5 -100v-870q0 -110 -6 -162l147 8v-90h-461v68q104 4 122.5 55t19 96.5t0.5 99.5v1033h-282q-113 -7 -122 -116v-45
q0 -717 -129 -970.5t-265 -253.5q-77 0 -133 38t-56 92t28 84.5t63 32.5t54 -7t31.5 -22.5t19 -30.5t6.5 -40z" />
    <glyph glyph-name="uni041C" unicode="&#x41c;" horiz-adv-x="1880" 
d="M1746 1434v-68q-118 3 -138 -117q-8 -43 -4 -106l54 -932q4 -72 4 -128l149 7v-90h-459v68q127 2 136 140q3 44 0 103l-53 873q-6 -16 -13 -32t-14 -34l-461 -1138h-61q-67 150 -135 300q-251 554 -390 922l-2 -90q-1 -48 -3 -112t-4 -136t-5 -150q-2 -78 -4 -157
t-4 -155t-4 -178q-2 -101 -7 -142l154 8v-90h-391v68q121 2 135 116q4 34 6 72l45 1095l-147 -5v88h313l512 -1184h4q18 42 43 105q24 63 38 97t63 160t147 353t193 469h303z" />
    <glyph glyph-name="uni041D" unicode="&#x41d;" horiz-adv-x="1597" 
d="M255 1204q0 94 7 148l-148 -9v91h461v-68q-102 -4 -128 -74q-13 -33 -13 -78v-100v-340h733v430q0 86 6 148l-148 -9v91h461v-68q-102 -4 -128 -74q-12 -33 -12 -78t-1 -100v-870q0 -110 -6 -162l147 8v-90h-461v68q104 4 129 73q12 33 12 79t1 99v374l-733 -9v-440
q0 -116 -7 -162l148 8v-90h-461v68q103 4 128 73q12 33 12 79t1 99v885z" />
    <glyph glyph-name="uni041E" unicode="&#x41e;" horiz-adv-x="1626" 
d="M95 716q0 88 19 176t58 172q83 178 244 291q161 112 394 112t398 -111t247 -285t82 -352q1 -179 -77 -347q-130 -281 -416 -373q-100 -32 -224 -32q-126 0 -230 31q-104 30 -186 84t-140 126t-96 156t-55 174q-18 90 -18 178zM296 773q0 -95 14 -177t42 -159
q63 -173 184 -279q121 -107 292 -107q239 0 372 192t133 447q0 256 -139 468q-150 228 -414 227q-106 0 -200 -56q-95 -56 -158 -146q-62 -91 -94 -203t-32 -207z" />
    <glyph glyph-name="uni041F" unicode="&#x41f;" horiz-adv-x="1557" 
d="M254 1204q0 94 7 148l-148 -9v91h1332v-68q-102 -4 -121 -55.5t-19.5 -96.5t-0.5 -100v-870q0 -110 -6 -162l147 8v-90h-461v68q104 4 122.5 55t19 96.5t0.5 99.5v1034l-557 -7q-114 -5 -124.5 -66.5t-11.5 -97.5v-938q0 -116 -7 -162l148 8v-90h-461v68q103 4 121.5 55
t19 96.5t0.5 99.5v885z" />
    <glyph glyph-name="uni0420" unicode="&#x420;" horiz-adv-x="1241" 
d="M571 618q178 0 299 104t121 279q0 356 -424 356q-97 0 -121 -67q-12 -32 -12 -76v-589q54 -7 137 -7zM572 1437q298 -1 458 -105t160 -314q0 -180 -128 -308q-170 -170 -555 -171h-31q-22 0 -42 1v-296q0 -116 -7 -162l189 10v-92h-502v68q103 4 128 73q12 33 12 79t1 99
v885q0 94 7 148l-148 -9v91q161 3 458 3z" />
    <glyph glyph-name="uni0421" unicode="&#x421;" horiz-adv-x="1432" 
d="M806 1467q225 0 413 -125l-10 110h111v-475h-74q-22 192 -134 299t-292 107q-223 0 -373 -181q-151 -181 -151 -472q0 -290 159 -473t381 -183t386 134q54 44 96 101l53 -43q-119 -164 -293 -240q-134 -59 -288 -59q-153 1 -281 57t-220 154q-194 207 -194 516
q0 310 177 530q122 152 316 212q99 30 218 31z" />
    <glyph glyph-name="uni0422" unicode="&#x422;" horiz-adv-x="1311" 
d="M908 0h-481v68q101 4 127 76q12 34 12 78v97l3 1038l-212 -1q-185 0 -223 -198q-12 -66 -12 -157h-76l12 433h1194l12 -433h-77q-4 194 -60 276q-56 83 -207 83l-173 -1l-3 -1115q0 -110 -6 -162l170 8v-90z" />
    <glyph glyph-name="uni0423" unicode="&#x423;" horiz-adv-x="1250" 
d="M416 109q0 -23 -19 -44q19 -7 55.5 -7t81.5 98.5t71 160.5l-405 802q-64 126 -83 229l-127 -5v91h494v-68q-121 0 -142 -58t34 -165l312 -625q169 416 209 529q94 270 121 303l-161 -7v91h418v-68q-105 -6 -147.5 -58.5t-104.5 -201.5l-331 -801q-76 -184 -123 -240.5
t-88.5 -77.5t-84.5 -21q-178 0 -178 116q0 58 27.5 89t63.5 33t54 -6t30 -21t17.5 -29t5.5 -39z" />
    <glyph glyph-name="uni0424" unicode="&#x424;" horiz-adv-x="1680" 
d="M1389 680q0 514 -466 559v-1008q466 29 466 449zM295 724q0 -342 169.5 -410t279.5 -78v1005q-220 -21 -334.5 -151.5t-114.5 -365.5zM603 1555h461v-68q-119 -5 -129.5 -66t-11.5 -97q320 -22 493.5 -181t173.5 -426q0 -389 -247.5 -475.5t-419.5 -93.5q0 -82 -1 -91
l-6 -75l148 8v-90h-461v68q116 5 128 75t13 108q-314 20 -482 159.5t-168 376.5q0 426 241 526.5t409 111.5q0 94 7 148l-148 -9v91z" />
    <glyph glyph-name="uni0425" unicode="&#x425;" horiz-adv-x="1329" 
d="M1343 0h-502v68q107 -5 119 40.5t-34 108.5q-46 64 -125.5 165.5t-173.5 232.5l-102 -150t-95 -141t-83.5 -125.5t-89.5 -118.5l170 10v-90h-403v68q123 25 185 109.5t97 135.5l265 381q-107 152 -224.5 316t-155.5 224t-59 114l-114 -5v91h530v-68l-90 -4
q-135 -7 -82.5 -105t151.5 -235t139 -192l197 284q26 37 82.5 117.5t98.5 120.5l-172 -9v91h403v-68q-124 -18 -206 -128.5t-115 -156.5l-231 -328q54 -74 171 -227t189 -250l141 -190l119 4v-90z" />
    <glyph glyph-name="uni0426" unicode="&#x426;" horiz-adv-x="1520" 
d="M1284 230q0 -94 -7 -148l148 9h30v-455h-85q0 173 -24.5 240.5t-56 95.5t-82.5 28h-1094v68q103 4 121.5 55t19 96.5t0.5 100.5v870q0 109 6 162l-147 -8v90h461v-68q-104 -4 -122.5 -55t-19 -96.5t-0.5 -99.5v-1034l541 7q112 5 121.5 66.5t10.5 97.5v938q0 116 7 162
l-148 -8v90h461v-68q-103 -4 -121.5 -55t-19 -96.5t-0.5 -99.5v-885z" />
    <glyph glyph-name="uni0427" unicode="&#x427;" horiz-adv-x="1438" 
d="M206 972v160q0 160 7 220l-148 -9v91h461v-68q-60 -2 -89.5 -25.5t-40.5 -75.5t-10.5 -135.5t-0.5 -206.5q3 -179 119 -219.5t204 -39.5q176 2 298 73v467q0 86 6 148l-148 -9v91h461v-68q-102 -4 -121 -55.5t-19.5 -96.5t-0.5 -100v-870q0 -110 -6 -162l147 8v-90h-461
v68q104 4 122.5 55t19 96.5t0.5 99.5v318q-158 -77 -376 -77q-324 0 -374 155t-50 257z" />
    <glyph glyph-name="uni0428" unicode="&#x428;" horiz-adv-x="2058" 
d="M1625 1190q0 116 7 162l-128 -8v90h441v-68q-103 -4 -121.5 -55t-19 -96.5t-0.5 -99.5v-885q0 -94 -7 -148l148 9v-91h-1832v68q103 4 121.5 55t19 96.5t0.5 100.5v870q0 109 6 162l-147 -8v90h461v-68q-104 -4 -122.5 -55t-19 -96.5t-0.5 -99.5v-1030h507v1105
q0 116 7 162l-128 -8v90h441v-68q-103 -4 -121.5 -55t-19 -96.5t-0.5 -99.5v-885q0 -76 -6 -140h513v1100z" />
    <glyph glyph-name="uni0429" unicode="&#x429;" horiz-adv-x="2050" 
d="M1804 230q0 -94 -7 -148l148 9v-4l10 4h30v-455h-85q0 173 -24.5 240.5t-56 95.5t-82.5 28h-1624v68q103 4 121.5 55t19 96.5t0.5 100.5v870q0 109 6 162l-147 -8v90h461v-68q-104 -4 -122.5 -55t-19 -96.5t-0.5 -99.5v-1030h507v1105q0 116 7 162l-128 -8v90h441v-68
q-103 -4 -121.5 -55t-19 -96.5t-0.5 -99.5v-885q0 -76 -6 -140h513v1100q0 116 7 162l-128 -8v90h441v-68q-103 -4 -121.5 -55t-19 -96.5t-0.5 -99.5v-885z" />
    <glyph glyph-name="uni042A" unicode="&#x42a;" horiz-adv-x="1469" 
d="M1206 429q0 332 -353 332q-83 0 -180 -6v-513q0 -114 -7 -160q48 -4 61 -4h155q142 0 233 87t91 264zM494 1204q0 94 7 146h-145q-127 0 -181 -82.5t-54 -266.5h-76l12 433h757v-68q-102 -4 -121 -55.5t-19.5 -96.5t-0.5 -100v-280l155 5q449 14 512.5 -149t63.5 -262
q0 -201 -128 -314.5t-335 -113.5h-588v68q101 2 120.5 53t20 96.5t0.5 101.5v885z" />
    <glyph glyph-name="uni042B" unicode="&#x42b;" horiz-adv-x="1840" 
d="M966 429q0 332 -350 332q-86 0 -183 -6v-513q0 -114 -7 -160q48 -4 62 -4h160q139 0 228.5 87.5t89.5 263.5zM1408 1204q0 94 7 148l-148 -9v91h461v-68q-102 -4 -121 -55.5t-19.5 -96.5t-0.5 -100v-870q0 -116 -7 -162l148 8v-90h-461v68q103 4 121.5 55t19 96.5
t0.5 99.5v885zM254 1204q0 94 7 148l-148 -9v91h461v-68q-102 -4 -121 -55.5t-19.5 -96.5t-0.5 -100v-280l165 5q439 14 502.5 -149t63.5 -262q0 -200 -130 -314t-323 -114h-598v68q101 2 120.5 53t20 96.5t0.5 101.5v885z" />
    <glyph glyph-name="uni042C" unicode="&#x42c;" horiz-adv-x="1259" 
d="M622 761q-91 0 -189 -6v-513q0 -114 -7 -160q48 -4 62 -4h166q154 0 248 86.5t94 265.5q0 180 -97.5 255.5t-276.5 75.5zM254 1204q0 94 7 148l-148 -9v91h461v-68q-102 -4 -121 -55.5t-19.5 -96.5t-0.5 -100v-280l165 5q468 11 532 -150.5t64 -260.5q0 -201 -134 -314.5
t-349 -113.5h-598v68q101 2 120.5 53t20 96.5t0.5 101.5v885z" />
    <glyph glyph-name="uni042D" unicode="&#x42d;" horiz-adv-x="1428" 
d="M115 309q173 -235 495 -235q90 0 188.5 45.5t215.5 177.5t123 409l-455 5q-145 2 -181 -18.5t-49.5 -57.5t-13.5 -105h-67v431h91l-15 -175h688q-16 269 -164 433t-343 164t-307 -107t-134 -299h-74v475h111l-10 -110q188 125 413 125q339 0 525 -231.5t186 -541.5
t-143 -462t-271 -208.5t-282 -56.5q-245 0 -379.5 104t-200.5 195z" />
    <glyph glyph-name="uni042E" unicode="&#x42e;" horiz-adv-x="2202" 
d="M1406 51q82 0 151.5 25.5t151.5 90.5t140 209t58 302q0 269 -115.5 445t-223.5 219t-186 43t-139 -25.5t-110.5 -70.5t-87 -106t-63 -131t-38.5 -146t-13 -152t13 -157.5t39.5 -159.5t65.5 -148.5t91.5 -123t118 -83.5t147.5 -31zM254 1204q0 94 7 148l-148 -9v91h461
v-68q-102 -4 -121 -55.5t-19.5 -96.5t-0.5 -100v-340h299q20 273 191 483t471 210q223 0 388.5 -111t247.5 -284.5t82 -352.5t-80 -353t-243 -286.5t-390 -112.5q-322 0 -492 217t-177 507l-297 -7v-440q0 -116 -7 -162l148 8v-90h-461v68q103 4 121.5 55t19 96.5t0.5 99.5
v885z" />
    <glyph glyph-name="uni042F" unicode="&#x42f;" horiz-adv-x="1378" 
d="M820 673q104 0 126 6v513q0 114 7 160q-10 4 -23 4h-153q-142 0 -233 -87t-91 -264q0 -137 71.5 -208.5t131.5 -97.5t164 -26zM1125 230q0 -94 -7 -148l148 9v-91h-461v68q103 4 121.5 55t19 96.5t0.5 100.5v280l-182 -2q-74 -42 -136 -136l-152 -235
q-91 -140 -129 -177.5t-61 -49.5h-241v68q80 0 124 40.5t119 153.5l159 237q42 62 75.5 90.5t83.5 41.5q-152 35 -249 134t-97 236q0 433 458 433h548v-68q-101 -4 -120.5 -54t-20 -96t-0.5 -101v-885z" />
    <glyph glyph-name="uni0430" unicode="&#x430;" horiz-adv-x="1057" 
d="M312 815q0 -105 -88 -105q-44 0 -68 30t-23 76q0 99 115 170t288 71q174 0 256 -91t80 -289l-2 -460q0 -72 -8 -139l145 8v-86h-293q-10 59 -14 116q-149 -149 -323 -149q-224 -1 -287 147q-19 44 -19 102q-1 57 27 109q28 53 74 93q89 77 233 116t291 37v128
q0 129 -26 182q-50 101 -171 101q-157 0 -213 -108q26 -29 26 -59zM425 84q142 0 270 120v297q-250 -11 -363 -113q-70 -63 -66 -163q3 -99 99 -131q28 -10 60 -10z" />
    <glyph glyph-name="uni0431" unicode="&#x431;" horiz-adv-x="1115" 
d="M279 547q0 -252 74.5 -376t215.5 -124t206.5 117.5t65.5 296.5q0 180 -72.5 315t-214.5 135q-136 0 -205.5 -113.5t-69.5 -250.5zM596 986q188 0 316 -125.5t128 -358.5t-138 -383t-345 -150t-338.5 166t-131.5 477q0 448 150.5 609t246.5 181.5t214.5 38t154.5 44
t54 72.5l71 -24q-27 -123 -62 -182t-139 -78.5t-180 -30.5t-138 -30t-172 -112.5t-107 -378.5h14q101 265 402 265z" />
    <glyph glyph-name="uni0432" unicode="&#x432;" horiz-adv-x="1068" 
d="M543 486q-66 0 -154 -5v-283q0 -66 -5 -114q26 -3 38 -3h140q177 0 213.5 75t36.5 129t-20.5 92t-55.5 62.5t-81 35.5t-112 11zM428.5 921.5q-39.5 -30.5 -39.5 -111.5v-251l153 3q116 2 170 66.5t53 134.5q-2 70 -20 103.5t-57.5 59.5t-129.5 26t-129.5 -30.5zM213 828
q0 75 9 118l-129 -6v84h95l437 2q153 0 241 -60.5t86 -174.5q0 -138 -84.5 -187.5t-142.5 -62.5v-3q206 -9 244.5 -102t38.5 -154q0 -123 -102.5 -202.5t-247.5 -79.5h-568v61q102 3 112.5 68.5t10.5 106.5v592z" />
    <glyph glyph-name="uni0433" unicode="&#x433;" horiz-adv-x="896" 
d="M213 807q0 92 8 139l-128 -6v84h769l9 -309h-78q-4 133 -60 180t-219 47q-82 0 -103.5 -50t-23.5 -179v-496q0 -92 -8 -139l129 6v-84h-418v61q83 0 101.5 53.5t21.5 196.5v496z" />
    <glyph glyph-name="uni0434" unicode="&#x434;" horiz-adv-x="1210" 
d="M804 807q0 92 8 139h-213q-86 0 -100.5 -53t-20.5 -120q-39 -402 -98 -573q-27 -79 -66 -123h366q84 0 104 57t20 193v480zM1155 -364h-78q0 181 -27 247t-59.5 91.5t-83.5 25.5h-612q-139 0 -155.5 -140t-16.5 -224h-78v441h83q54 0 140 69t109 798l-181 -9v89h905v-61
q-84 0 -102.5 -56t-18.5 -194v-496q-5 -105 -11 -139l186 8v-450z" />
    <glyph glyph-name="uni0435" unicode="&#x435;" horiz-adv-x="1110" 
d="M829 120q98 48 152 122l50 -41q-77 -117 -201 -176q-124 -58 -237 -58q-224 0 -365 150t-141 382q0 233 145 396q145 162 371 162q179 0 297 -116t119 -337l-721 -12q-2 -376 184 -483q64 -37 156 -37q93 0 191 48zM605 977q-254 0 -301 -299h522q0 196 -119 272
q-42 26 -102 27z" />
    <glyph glyph-name="uni0436" unicode="&#x436;" horiz-adv-x="1588" 
d="M712 807q0 92 8 139l-129 -6v84h408v-61q-84 0 -101.5 -53.5t-20.5 -196.5v-135h99l220 262q80 83 121 108l-140 -6v82h373v-61q-133 -15 -217 -100.5t-111 -114.5l-145 -179q74 -55 153.5 -162t128.5 -175q124 -170 214 -171v-61h-180q-63 0 -142.5 100.5t-161 216.5
t-139.5 183l-75 -2v-281q0 -92 -8 -139l129 6v-84h-408v61q83 0 101.5 53.5t21.5 196.5v187l-73 2q-58 -67 -130 -169.5t-100 -140.5q-76 -100 -121.5 -145t-91.5 -45h-180v61q90 1 214 171q107 148 169 224t113 113l-145 179q-84 90 -160 147t-168 68v61h373v-82l-140 6
q41 -25 121 -108l220 -262h100v229z" />
    <glyph glyph-name="uni0437" unicode="&#x437;" horiz-adv-x="940" 
d="M223 969q109 88 262 88t250 -70.5t97 -199.5t-87 -180.5t-140 -65.5v-4q194 -16 234.5 -113.5t40.5 -161.5q0 -132 -115.5 -213.5t-303.5 -81.5t-274 63.5t-111 107.5t-21 82q0 44 24.5 75.5t60.5 32.5q57 2 81 -28.5t24 -72.5t-31 -74q77 -115 235 -115t196.5 77
t38.5 137q0 117 -71.5 175.5t-181.5 58.5h-94v76h85q167 0 194.5 86.5t27.5 134.5q0 92 -45.5 144.5t-121.5 52.5q-131 0 -196.5 -86.5t-74.5 -205.5h-64v359h86z" />
    <glyph glyph-name="uni0438" unicode="&#x438;" horiz-adv-x="1284" 
d="M1191 0h-418v61q83 0 102 55t22 195v464l-512 -642q-2 -22 -6 -55l129 6v-84h-418v61q83 0 102 55t22 195v496q0 92 8 139l-129 -6v84h418v-61q-83 0 -102 -55t-22 -195v-437l513 633q3 27 5 37l-129 -6v84h418v-61q-84 0 -102.5 -56t-18.5 -194v-496q-5 -105 -11 -139
l129 6v-84z" />
    <glyph glyph-name="uni0439" unicode="&#x439;" horiz-adv-x="1284" 
d="M1191 0h-418v61q83 0 102 55t22 195v464l-512 -642q-2 -22 -6 -55l129 6v-84h-418v61q83 0 102 55t22 195v496q0 92 8 139l-129 -6v84h418v-61q-83 0 -102 -55t-22 -195v-437l513 633q3 27 5 37l-129 -6v84h418v-61q-84 0 -102.5 -56t-18.5 -194v-496q-5 -105 -11 -139
l129 6v-84zM767 1354q0 103 82 100q42 -1 63.5 -29.5t21.5 -67.5t-23 -71.5t-62 -55.5t-91 -35.5t-142 -12.5t-173 49t-83 128q0 37 21 65.5t53 29.5q52 2 72.5 -26t20.5 -65t-20 -67q21 -39 140 -39t140 39q-20 30 -20 58z" />
    <glyph glyph-name="uni043A" unicode="&#x43a;" horiz-adv-x="1100" 
d="M194 807q0 92 8 139l-129 -6v84h418v-61q-84 0 -101.5 -53.5t-20.5 -196.5v-135h79l250 262q80 83 121 108l-140 -6v82h373v-61q-128 -15 -162 -49l-166 -166l-159 -168q61 -29 127 -111l145 -186q6 -8 20.5 -28t83.5 -107t144 -87v-61h-186q-68 0 -163.5 124.5
t-170.5 232t-115 145.5l-83 -4v-281q0 -92 -8 -139l129 6v-84h-418v61q83 0 102 55t22 195v496z" />
    <glyph glyph-name="uni043B" unicode="&#x43b;" horiz-adv-x="1212" 
d="M1119 0h-418v61q83 0 102 55t22 195v496q0 92 8 139h-180q-98 0 -109.5 -62t-13.5 -129t-13.5 -165t-64.5 -355.5t-284 -257.5q-74 0 -113.5 29.5t-39.5 77.5q0 104 90 106q66 0 79 -30.5t13 -43.5t-5 -30q8 -4 19 -4q30 0 64 44.5t84.5 209.5t72.5 609l-192 -10v89h882
v-61q-84 0 -102.5 -56t-18.5 -194v-496q-5 -105 -11 -139l129 6v-84z" />
    <glyph glyph-name="uni043C" unicode="&#x43c;" horiz-adv-x="1512" 
d="M1447 0h-413v61q136 -4 109 175l-81 525l-312 -761h-82l-320 782l-72 -584q-7 -60 -25 -119l129 5v-84h-315v61q86 0 100.5 53t18.5 85l91 747l-126 -6v84h273l335 -790l324 790h241v-61q-123 0 -101 -147l93 -624q4 -26 4 -57.5t-3 -55.5l132 5v-84z" />
    <glyph glyph-name="uni043D" unicode="&#x43d;" 
d="M1181 0h-418v61q83 0 101.5 53.5t21.5 196.5v174l-499 -6v-262q0 -92 -8 -139l129 6v-84h-418v61q83 0 102 55t22 195v496q0 92 8 139l-129 -6v84h418v-61q-84 0 -101.5 -53.5t-20.5 -196.5v-147h498v241q0 92 8 139l-129 -6v84h418v-61q-84 0 -102.5 -56t-18.5 -194
v-496q-5 -105 -11 -139l129 6v-84z" />
    <glyph glyph-name="uni043E" unicode="&#x43e;" horiz-adv-x="1198" 
d="M966 908q150 -150 149 -380q0 -230 -149 -396q-149 -165 -367 -165t-366 147t-148 381t148 398t365 164q218 1 368 -149zM460 943q-166 -104 -166 -408q0 -195 84 -341q84 -145 235 -145q153 0 229 133q64 112 64 307t-71 331q-83 159 -235 159q-82 0 -140 -36z" />
    <glyph glyph-name="uni043F" unicode="&#x43f;" horiz-adv-x="1259" 
d="M1166 0h-418v61q83 0 102 55t22 195v496q0 92 8 139l-369 -4q-84 0 -103 -48t-21 -181v-496q0 -92 -8 -139l129 6v-84h-418v61q83 0 102 55t22 195v496q0 92 8 139l-129 -6v84h1076v-61q-84 0 -102.5 -56t-18.5 -194v-496q-5 -105 -11 -139l129 6v-84z" />
    <glyph glyph-name="uni0440" unicode="&#x440;" horiz-adv-x="1223" 
d="M371 129q107 -80 245 -80t224 131t86 326t-78 323t-234 128q-102 0 -194 -71q-28 -21 -48 -44l1 -54v-70zM369 934q141 123 341 123q66 0 148 -35q82 -34 143 -100q136 -144 136 -387t-155 -405q-155 -163 -367 -163q-142 0 -245 67l-1 -339q0 -92 -8 -139l129 6v-84
h-418v61q84 0 106 70q12 37 15 180l4 989q0 86 8 133l-145 -8v86q165 1 216 35q14 10 25 20h60q4 -42 8 -110z" />
    <glyph glyph-name="uni0441" unicode="&#x441;" horiz-adv-x="1090" 
d="M294 544q0 -206 97 -338t248 -132t269 107q36 32 60 69l53 -41q-75 -119 -203 -185q-206 -106 -423 -22q-190 73 -270 269q-40 98 -40 196q-1 98 17 167q18 70 51 132q70 132 191 211q122 80 281 80t266 -75t107 -178q0 -44 -24 -76t-62 -32q-57 -2 -80 29q-24 30 -24 72
t31 74q-43 110 -217 110q-143 0 -236 -115q-92 -116 -92 -322z" />
    <glyph glyph-name="uni0442" unicode="&#x442;" horiz-adv-x="1013" 
d="M420 807q0 83 8 130h-148q-84 0 -120.5 -48t-36.5 -174h-78l9 309h905l9 -309h-78q-4 132 -30.5 166.5t-58.5 45t-80 10.5h-128v-720q0 -92 -8 -139l129 6v-84h-418v61q83 0 102 55t22 195v496z" />
    <glyph glyph-name="uni0443" unicode="&#x443;" horiz-adv-x="1081" 
d="M267 -423q0 -15 -3 -25q11 -5 26 -5q16 -1 44 15t67 83t134 332q-347 743 -366 788q-52 123 -62 180l-99 -5v84h424v-61q-55 -6 -76 -21q-21 -14 -26 -44t6 -78t281 -613q213 621 236 675t40 66l-141 -8v84h321v-61q-72 -27 -114 -95q-21 -34 -39 -77t-179 -491
t-200 -548t-81 -168q-87 -139 -203 -139q-116 -1 -151 69q-12 24 -12 49q0 46 24 76t56 30t48 -9t27 -23q10 -13 14 -29t4 -31z" />
    <glyph glyph-name="uni0444" unicode="&#x444;" horiz-adv-x="1596" 
d="M1306 503q0 198 -80 328.5t-237 130.5q-60 0 -105 -17v-858q55 -38 137 -38q145 0 215 128t70 326zM290 521q0 -198 80 -328.5t237 -130.5q50 0 103 21v858q-64 31 -135 31q-138 0 -211.5 -126.5t-73.5 -324.5zM1052 1057q195 0 327.5 -139.5t132.5 -382.5
q0 -242 -139.5 -405t-342.5 -163q-87 0 -146 36v-308q0 -92 -8 -139l129 6v-84h-419v61q84 0 101.5 52.5t22.5 197.5v214q-180 -73 -347.5 -0.5t-223 213.5t-55.5 266q0 252 139.5 413.5t350.5 161.5q58 0 136 -31v254q0 84 6 133l-145 -8v86q170 0 207 22t49 33h57v-523
q69 34 168 34z" />
    <glyph glyph-name="uni0445" unicode="&#x445;" horiz-adv-x="1085" 
d="M46 1024h422v-61q-95 -4 -104 -45q-9 -40 65 -142l119 -162q256 313 278 334l-141 -8v84h336v-61q-77 -22 -120 -60q-42 -38 -302 -348l282 -351q56 -71 90 -126l93 6v-84h-396v61q56 0 68 18q22 32 -18 83l-216 266q-221 -302 -235 -318l-30 -32l157 6v-84h-344v61
q59 15 90 45q32 29 309 388q-252 336 -274 379t-33 72l-96 -5v84z" />
    <glyph glyph-name="uni0446" unicode="&#x446;" horiz-adv-x="1256" 
d="M1025 217q0 -92 -8 -139l129 6l55 2v-450h-78q0 171 -27 239.5t-59.5 96.5t-83.5 28h-863v61q83 0 101 51.5t19.5 97.5t3.5 101v496q0 92 8 139l-129 -6v84h418v-61q-85 0 -103 -55t-21 -195v-496q0 -92 -8 -139l349 4q84 0 101.5 44.5t19 87t3.5 97.5v496q0 92 8 139
l-129 -6v84h418v-61q-85 0 -103 -55t-21 -195v-496z" />
    <glyph glyph-name="uni0447" unicode="&#x447;" horiz-adv-x="1143" 
d="M1050 0h-418v61q83 0 102.5 56t19.5 194v117q-114 -28 -218 -28q-195 0 -287.5 95t-92.5 263v70q0 70 8 118l-129 -6v84h418v-61q-71 0 -96 -52.5t-25 -197.5q2 -79 96.5 -163.5t327.5 -24.5v282q0 92 8 139l-129 -6v84h418v-61q-84 0 -102.5 -56t-18.5 -194v-496
q-5 -105 -11 -139l129 6v-84z" />
    <glyph glyph-name="uni0448" unicode="&#x448;" horiz-adv-x="1699" 
d="M1312 807q0 92 8 139l-129 -6v84h418v-61q-83 0 -102.5 -56t-19.5 -194v-496q-6 -113 -10 -139l129 6v-84h-1516v61q83 0 101 51.5t19.5 97.5t3.5 101v496q0 92 8 139l-129 -6v84h418v-61q-85 0 -103 -55t-21 -195v-496q0 -92 -8 -139l269 4q84 2 101.5 45.5t19 86
t3.5 97.5v496q0 92 8 139l-129 -6v84h418v-61q-85 0 -103 -55t-21 -195v-496q0 -92 -8 -139l251 4q84 2 101.5 45.5t19 86t3.5 97.5v496z" />
    <glyph glyph-name="uni0449" unicode="&#x449;" horiz-adv-x="1716" 
d="M1661 -364h-78q0 171 -27 239.5t-59.5 96.5t-83.5 28h-1323v61q83 0 101 51.5t19.5 97.5t3.5 101v496q0 92 8 139l-129 -6v84h418v-61q-85 0 -103 -55t-21 -195v-496q0 -92 -8 -139l269 4q84 2 101.5 45.5t19 86t3.5 97.5v496q0 92 8 139l-129 -6v84h418v-61
q-85 0 -103 -55t-21 -195v-496q0 -92 -8 -139l251 4q84 2 101.5 45.5t19 86t3.5 97.5v496q0 92 8 139l-129 -6v84h418v-61q-83 0 -102.5 -56t-19.5 -194v-496q-6 -113 -10 -139l129 6l55 2v-450z" />
    <glyph glyph-name="uni044A" unicode="&#x44a;" horiz-adv-x="1194" 
d="M720 521q-67 0 -155 -5v-318q0 -66 -5 -114q26 -3 37 -3h124q100 0 163.5 53t63.5 162q0 108 -60 166.5t-168 58.5zM389 807q0 85 8 132l-117 -2q-85 -2 -121 -49.5t-36 -172.5h-78l9 309h632v-61q-114 0 -117.5 -75.5t-3.5 -104.5v-189l127 3q232 6 334.5 -75.5
t102.5 -220.5t-97 -220t-238 -81h-528v61q102 3 112.5 68.5t10.5 106.5v571z" />
    <glyph glyph-name="uni044B" unicode="&#x44b;" horiz-adv-x="1519" 
d="M521 521q-47 0 -132 -5v-318q0 -66 -5 -114q68 -3 126 -3q112 0 175.5 53t63.5 162q0 108 -60 166.5t-168 58.5zM1132 807q0 92 8 139l-129 -6v84h418v-61q-83 0 -102 -55t-22 -195v-496q0 -92 -8 -139l129 6v-84h-418v61q83 0 102 55t22 195v496zM213 807q0 92 8 139
l-129 -6v84h418v-61q-114 0 -117.5 -75.5t-3.5 -104.5v-189l104 3q232 7 334.5 -75.5t102.5 -220.5q0 -139 -97 -220t-238 -81h-505v61q102 3 112.5 68.5t10.5 106.5v571z" />
    <glyph glyph-name="uni044C" unicode="&#x44c;" horiz-adv-x="1038" 
d="M544 521q-68 0 -155 -5v-318q0 -66 -5 -114q26 -3 37 -3h124q100 0 163.5 53t63.5 162q0 108 -60 166.5t-168 58.5zM213 807q0 92 8 139l-129 -6v84h418v-61q-114 0 -117.5 -75.5t-3.5 -104.5v-189l127 3q232 6 334.5 -75.5t102.5 -220.5t-97 -220t-238 -81h-528v61
q102 3 112.5 68.5t10.5 106.5v571z" />
    <glyph glyph-name="uni044D" unicode="&#x44d;" horiz-adv-x="1090" 
d="M485 1057q232 0 376.5 -142.5t144.5 -372.5q0 -231 -151 -403t-387 -172q-162 0 -268.5 75t-106.5 178q0 44 24.5 75.5t60.5 32.5q57 2 81 -28.5t24 -72.5t-31 -74q22 -62 85.5 -86t131.5 -24q143 0 235.5 115.5t92.5 321.5h-467v84h464q-25 398 -306 398
q-130 0 -206.5 -80t-85.5 -194h-64v359h86l-5 -85q150 95 272 95z" />
    <glyph glyph-name="uni044E" unicode="&#x44e;" horiz-adv-x="1667" 
d="M1269 118q105 69 105 371q0 195 -77 342.5t-221 147.5t-216.5 -125.5t-72.5 -318.5t79.5 -339.5t221.5 -146.5q76 0 181 69zM214 807q0 92 8 139l-129 -6v84h418v-61q-84 0 -101.5 -53.5t-20.5 -196.5v-147h194q24 212 162 351.5t339 139.5q200 0 349.5 -149.5
t149.5 -379.5t-149 -395.5t-358 -165.5t-353.5 148t-144.5 369l-191 -4v-263q0 -92 -8 -139l129 6v-84h-418v61q83 0 102 55t22 195v496z" />
    <glyph glyph-name="uni044F" unicode="&#x44f;" horiz-adv-x="1114" 
d="M582 483q56 0 143 5v338q0 66 5 114q-25 3 -36 3h-117q-99 0 -162 -53t-63 -161t62 -177t168 -69zM171 720q0 142 97 223t238 81h518v-61q-102 -3 -112.5 -69t-10.5 -106v-571q0 -92 -8 -139l129 6v-84h-418v61q104 0 112.5 73t8.5 110v166l-141 -3q-42 -40 -95 -117.5
t-73 -105.5q-134 -184 -220 -184h-161v61q62 0 102.5 43t71.5 84t74 95l73 91q40 49 93 63q-278 50 -278 283z" />
    <glyph glyph-name="uni0450" unicode="&#x450;" horiz-adv-x="1110" 
d="M829 120q98 48 152 122l50 -41q-77 -117 -201 -176q-124 -58 -237 -58q-224 0 -365 150t-141 382q0 233 145 396q145 162 371 162q179 0 297 -116t119 -337l-721 -12q-2 -376 184 -483q64 -37 156 -37q93 0 191 48zM605 977q-254 0 -301 -299h522q0 196 -119 272
q-42 26 -102 27zM452 1405q-44 46 -44 80t14 51q24 31 64 31q41 0 81 -56l172 -276l-57 -47z" />
    <glyph glyph-name="uni0451" unicode="&#x451;" horiz-adv-x="1110" 
d="M828 120q98 48 152 122l50 -41q-77 -117 -201 -176q-124 -58 -237 -58q-224 0 -365 150t-141 382q0 233 145 396q145 162 371 162q180 0 298 -116t118 -337l-721 -12q-3 -376 183 -483q64 -37 157 -37t191 48zM604 977q-254 0 -301 -299h522q0 196 -119 272
q-42 26 -102 27zM823 1284q-31 -36 -61 -36q-32 0 -50 10t-32 26t-22 38t-8 47q0 51 31 87t62 37q33 0 51 -10q18 -11 32 -27q28 -35 28 -85q0 -51 -31 -87zM481 1284q-31 -36 -61 -36q-32 0 -50 10t-32 26t-22 38t-8 47q0 51 31 87t62 37q33 0 51 -10q18 -11 32 -27
q28 -35 28 -85q0 -51 -31 -87z" />
    <glyph glyph-name="uni0452" unicode="&#x452;" horiz-adv-x="1214" 
d="M1044 28q0 -550 -307 -550q-119 0 -140.5 46t-21.5 76t22.5 59t56.5 30q53 2 75.5 -26t22.5 -57t-13 -49q64 -7 96.5 89t32.5 363v514q0 213 -62.5 337.5t-213 86.5t-224.5 -125v-605q0 -81 -10 -139l129 6v-84h-418v61q84 0 103.5 56t19.5 194v867l-148 -2v103h148v1
q0 84 6 133l-145 -8v86q170 0 207 22t49 33h59v-267h419v-95l-419 -5v-257q164 135 343 135q180 0 256.5 -119t76.5 -413v-497z" />
    <glyph glyph-name="uni0453" unicode="&#x453;" horiz-adv-x="896" 
d="M213 807q0 92 8 139l-128 -6v84h769l9 -309h-78q-4 133 -60 180t-219 47q-82 0 -108 -60q-17 -40 -19 -169v-496q0 -92 -8 -139l129 6v-84h-418v61q84 0 108 70q13 37 15 180v496zM764 1543q18 -24 19 -43q0 -50 -44 -95l-230 -217l-57 47l172 276q39 56 81 56
q41 0 59 -24z" />
    <glyph glyph-name="uni0454" unicode="&#x454;" horiz-adv-x="1090" 
d="M622 981q-137 0 -228.5 -106t-99.5 -299h475v-115l-471 -7q20 -169 114 -274.5t235 -105.5t218 69.5t102 106.5l53 -41q-76 -119 -242.5 -204.5t-370 -7t-263.5 225t-60 244.5t17.5 167t69 166t173 177t280.5 80t266 -75t107 -178q0 -44 -24.5 -75.5t-60.5 -32.5
q-57 -2 -81 28.5t-24 72.5t31 74q-24 62 -86.5 86t-129.5 24z" />
    <glyph glyph-name="uni0455" unicode="&#x455;" horiz-adv-x="948" 
d="M170 338q8 -127 96 -209t192 -82q104 -1 152 29t68 60t21 76t-25 80t-68 62q-42 26 -94 47q-54 21 -110 43q-138 55 -202 111q-92 80 -93 198q0 117 72 198q94 106 278 106q142 0 255 -88l-5 78h86v-359h-64q-15 194 -148 266q-48 26 -105 26q-101 0 -155 -45
q-53 -45 -53 -102q0 -58 26 -94t67 -64q42 -29 96 -51t110 -46q146 -61 206 -112q93 -80 93 -212t-106 -209q-106 -78 -268 -78t-294 90l7 -71h-86l-12 352h63z" />
    <glyph glyph-name="uni0456" unicode="&#x456;" horiz-adv-x="575" 
d="M407 1368q1 -26 -9 -47q-10 -23 -25 -39t-35 -25t-42 -9q-46 0 -78 34q-32 35 -32 74q0 38 9 60t25 40q16 16 35 26q20 10 43 10q22 0 42 -10t35 -26q15 -18 23 -40t9 -48zM388 217q0 -92 -8 -139l129 6v-84h-418v61q84 0 107 70q14 42 14 180v467q0 67 8 133l-145 -8v86
q171 1 227 35q16 10 27 20h59v-827z" />
    <glyph glyph-name="uni0457" unicode="&#x457;" horiz-adv-x="575" 
d="M501 1284q-30 -36 -62 -36q-53 0 -82 35q-30 35 -30 73q0 62 30 99t63 37q32 0 50 -10t32 -26q28 -36 29 -86q0 -50 -30 -86zM214 1284q-30 -36 -62 -36q-53 0 -82 35q-30 35 -30 73q0 62 30 99t63 37t51 -10t32 -26q28 -36 28 -86t-30 -86zM389 217q0 -92 -8 -139l129 6
v-84h-418v61q84 0 107 70q14 42 14 180v467q0 67 8 133l-145 -8v86q170 1 226 35q16 10 28 20h59v-827z" />
    <glyph glyph-name="uni0458" unicode="&#x458;" horiz-adv-x="526" 
d="M382 1368q0 -26 -10 -47q-10 -23 -24 -39q-15 -16 -35 -25t-42 -9q-45 0 -77 34q-32 35 -33 74q0 38 9 60q8 22 24 40q16 16 36 26t43 10t43 -10t34 -26q16 -18 24 -40t8 -48zM56 989q174 0 228 34q16 10 28 21h59v-1051q0 -275 -107 -411q-107 -137 -282 -137
q-118 -1 -152 71q-10 20 -10 51q0 29 24 59t57 30q52 0 74 -27t22 -46v-23q0 -4 -1 -9q29 -12 63 -12q34 -1 70 33q62 56 62 251l4 955q0 84 6 133l-145 -8v86z" />
    <glyph glyph-name="uni0459" unicode="&#x459;" horiz-adv-x="1550" 
d="M1076 521q-30 0 -115 -5v-318q0 -66 -5 -114q26 -3 34 -3h94q94 0 157 53t63 164q0 223 -228 223zM207 114q0 -15 -3 -25q10 -10 24 -10q30 0 63.5 51t82 213.5t59.5 519.5v81l-181 -9v89h830v-61q-84 0 -102.5 -56t-18.5 -194v-119l87 3q231 7 334 -74.5t103 -220.5
t-97 -220.5t-238 -81.5h-488v61q102 3 112.5 68.5t10.5 106.5v571q0 92 8 139h-130q-121 0 -121 -159v-14q-24 -470 -133.5 -638t-220.5 -168q-74 0 -118.5 29.5t-44.5 81.5q0 110 90 112q66 0 79 -30.5t13 -45.5z" />
    <glyph glyph-name="uni045A" unicode="&#x45a;" horiz-adv-x="1622" 
d="M1033 198q0 -66 -5 -114q26 -3 34 -3h94q94 0 157 53t63 164q0 223 -228 223h-9l-106 -5v-318zM857 807q0 92 8 139l-129 -6v84h418v-61q-84 0 -102.5 -56t-18.5 -194v-119l87 3q231 7 334 -74.5t103 -220.5t-97 -220.5t-238 -81.5h-488v61q102 3 112.5 68.5t10.5 106.5
v277l-470 -6v-290q0 -92 -8 -139l129 6v-84h-418v61q83 0 102 55t22 195v496q0 92 8 139l-129 -6v84h418v-61q-84 0 -101.5 -53.5t-20.5 -196.5v-119h468v213z" />
    <glyph glyph-name="uni045B" unicode="&#x45b;" horiz-adv-x="1227" 
d="M1044 217q0 -92 -8 -139l129 6v-84h-418v61q84 0 102.5 56t18.5 194v286q0 177 -56 265.5t-174 85.5t-182.5 -51t-87.5 -75v-605q0 -81 -10 -139l129 6v-84h-418v61q84 0 103.5 56t19.5 194v867l-148 -2v103h148v1q0 84 6 133l-145 -8v86q170 0 207 22t49 33h59v-267h419
v-95l-419 -5v-257q164 135 339 135t254 -109.5t83 -348.5v-382z" />
    <glyph glyph-name="uni045C" unicode="&#x45c;" horiz-adv-x="1100" 
d="M194 807q0 92 8 139l-129 -6v84h418v-61q-84 0 -107 -70q-12 -37 -15 -180v-135h79l250 262q80 83 121 108l-140 -6v82h373v-61q-128 -15 -265 -152l-63 -63l-159 -168q61 -29 127 -111l145 -186q7 -8 21 -28q14 -21 34 -45q119 -150 193 -149v-61h-186q-68 0 -164 125
t-170 232q-75 107 -115 145l-83 -4v-281q0 -92 -8 -139l129 6v-84h-418v61q84 0 108 70q14 40 16 180v496zM804 1543q18 -24 19 -43q0 -50 -44 -95l-230 -217l-57 47l172 276q39 56 81 56q40 0 59 -24z" />
    <glyph glyph-name="uni045D" unicode="&#x45d;" horiz-adv-x="1284" 
d="M1192 0h-418v61q84 0 108 70q14 40 16 180v464l-512 -642q-2 -22 -6 -55l129 6v-84h-418v61q83 0 107 70q14 40 17 180v496q0 92 8 139l-129 -6v84h418v-61q-84 0 -108 -70q-14 -40 -16 -180v-437l513 633q3 27 5 37l-129 -6v84h418v-61q-84 0 -107 -70q-14 -42 -14 -180
v-496q-5 -105 -11 -139l129 6v-84zM428 1405q-44 46 -44 80t14 51q24 31 64 31q41 0 81 -56l172 -276l-57 -47z" />
    <glyph glyph-name="uni045E" unicode="&#x45e;" horiz-adv-x="1081" 
d="M267 -423q0 -15 -3 -25q27 -12 62.5 7t74.5 86t134 332l-320 685q-94 201 -108 283l-99 -5v84h424v-61q-55 -6 -76 -21t-28 -56.5t49 -164.5l240 -514q46 131 88.5 258.5t70.5 208.5q85 251 117 274l-141 -8v84h321v-61q-72 -28 -109 -87.5t-81 -179.5l-256 -714
q-47 -129 -86 -229.5t-103.5 -204t-180.5 -103.5t-139.5 46.5t-23.5 71.5q0 46 24.5 76.5t55.5 30.5q32 0 48.5 -9.5t26.5 -23.5t14 -29.5t4 -30.5zM697 1354q0 103 82 100q42 -1 63.5 -29.5t21.5 -67.5t-23 -71.5t-62 -55.5t-91 -35.5t-142 -12.5t-173 49t-83 128
q0 37 21 65.5t53 29.5q52 2 72.5 -26t20.5 -65t-20 -67q21 -39 140 -39t140 39q-20 30 -20 58z" />
    <glyph glyph-name="uni045F" unicode="&#x45f;" horiz-adv-x="1259" 
d="M1166 0h-465v-364h-78q0 171 -27 239.5t-59.5 96.5t-83.5 28h-363v61q83 0 101 51.5t19.5 97.5t3.5 101v496q0 92 8 139l-129 -6v84h418v-61q-85 0 -103 -55t-21 -195v-496q0 -92 -8 -139l369 4q84 0 101.5 44.5t19 87t3.5 97.5v496q0 92 8 139l-129 -6v84h418v-61
q-83 0 -102.5 -56t-19.5 -194v-496q-6 -113 -10 -139l129 6v-84z" />
    <glyph glyph-name="uni0490" unicode="&#x490;" horiz-adv-x="1122" 
d="M254 1204q0 94 7 148l-148 -9v91h610q134 0 208.5 59t74.5 226h68l-11 -359h-398l-91 -2q-103 -4 -121.5 -56t-19 -97.5t-0.5 -98.5v-862q0 -116 -7 -162l209 8v-90h-522v68q103 4 121.5 55t19 96.5t0.5 99.5v885z" />
    <glyph glyph-name="uni0491" unicode="&#x491;" horiz-adv-x="896" 
d="M213 807q0 92 8 139l-128 -6v84h421q163 0 219 47t60 180h78l-9 -309h-348q-82 0 -103.5 -50t-23.5 -179v-496q0 -92 -8 -139l129 6v-84h-418v61q83 0 101.5 53.5t21.5 196.5v496z" />
    <glyph glyph-name="uni04B0" unicode="&#x4b0;" horiz-adv-x="1298" 
d="M757 172q0 -47 -5 -90l170 8v-90h-481v68q101 4 120 56.5t19.5 97.5t0.5 97v135l-306 -3v113h299l-348 552q-93 144 -111 232l-127 -5v91h528v-68q-133 0 -154 -58.5t46 -164.5q199 -320 291 -447h4q83 161 124.5 239t73 137.5t51.5 97.5q71 137 111 180l-162 -7v91h418
v-68q-97 -6 -162 -66t-154 -225q-89 -166 -244 -461v-50h299v-105l-300 -3z" />
    <glyph glyph-name="uni04B1" unicode="&#x4b1;" horiz-adv-x="1034" 
d="M605 -305q0 -92 -8 -139l129 6v-84h-418v61q84 0 101.5 53.5t20.5 196.5v207l-266 -3v103h270l-248 566q-67 155 -76 210.5t-10 73.5l-88 -6v84h377v-61q-123 0 -95 -91.5t48 -136.5l157 -360q27 -70 60 -167h2l50 148l163 449q22 62 61 141l-131 -6v84h324v-61
q-62 0 -99.5 -58.5t-99.5 -218.5l-228 -590h306v-95l-302 -3v-303z" />
    <glyph glyph-name="endash" unicode="&#x2013;" horiz-adv-x="1208" 
d="M135 727h932v-135l-932 -8v143z" />
    <glyph glyph-name="emdash" unicode="&#x2014;" horiz-adv-x="1434" 
d="M135 727h1157v-135l-1157 -8v143z" />
    <glyph glyph-name="quoteleft" unicode="&#x2018;" horiz-adv-x="459" 
d="M245 982q-41 0 -68 15q-27 14 -45 39t-28 59q-9 34 -10 73q0 85 44 204t108 183l55 -41q-68 -84 -92 -230q-8 -48 -2 -95q57 25 101 -3q44 -29 44 -85q0 -57 -33 -88t-74 -31z" />
    <glyph glyph-name="quoteright" unicode="&#x2019;" horiz-adv-x="356" 
d="M158 1557q41 -1 68 -15q28 -14 46 -39t28 -59t9 -73q0 -85 -44 -204t-108 -183l-55 41q68 83 92 229q8 48 2 96q-57 -25 -101 3q-44 29 -44 85q0 57 33 88t74 31z" />
    <glyph glyph-name="quotesinglbase" unicode="&#x201a;" horiz-adv-x="518" 
d="M242 207q41 -1 68 -15q28 -14 46 -39t28 -59t9 -73q0 -85 -44 -204t-108 -183l-55 41q68 83 92 229q8 48 2 96q-57 -25 -101 3q-44 29 -44 85q0 57 33 88t74 31z" />
    <glyph glyph-name="quotedblleft" unicode="&#x201c;" horiz-adv-x="819" 
d="M245 982q-41 0 -68 15q-27 14 -45 39t-28 59q-9 34 -10 73q0 85 44 204t108 183l55 -41q-68 -84 -92 -230q-8 -48 -2 -95q57 25 101 -3q44 -29 44 -85q0 -57 -33 -88t-74 -31zM606 982q-41 0 -68 15q-27 14 -45 39t-28 59q-9 34 -10 73q0 85 44 204t108 183l55 -41
q-68 -84 -92 -230q-8 -48 -2 -95q57 25 101 -3q44 -29 44 -85q0 -57 -33 -88t-74 -31z" />
    <glyph glyph-name="quotedblright" unicode="&#x201d;" horiz-adv-x="715" 
d="M158 1557q41 -1 68 -15q28 -14 46 -39t28 -59t9 -73q0 -85 -44 -204t-108 -183l-55 41q68 83 92 229q8 48 2 96q-57 -25 -101 3q-44 29 -44 85q0 57 33 88t74 31zM518 1557q41 -1 68 -15q28 -14 46 -39t28 -59t9 -73q0 -85 -44 -204t-108 -183l-55 41q68 83 92 229
q8 48 2 96q-57 -25 -101 3q-44 29 -44 85q0 57 33 88t74 31z" />
    <glyph glyph-name="quotedblbase" unicode="&#x201e;" horiz-adv-x="879" 
d="M242 207q41 -1 68 -15q28 -14 46 -39t28 -59t9 -73q0 -85 -44 -204t-108 -183l-55 41q68 83 92 229q8 48 2 96q-57 -25 -101 3q-44 29 -44 85q0 57 33 88t74 31zM602 207q41 -1 68 -15q28 -14 46 -39t28 -59t9 -73q0 -85 -44 -204t-108 -183l-55 41q68 83 92 229
q8 48 2 96q-57 -25 -101 3q-44 29 -44 85q0 57 33 88t74 31z" />
    <glyph glyph-name="dagger" unicode="&#x2020;" horiz-adv-x="1049" 
d="M505 944q-74 426 -74 464q0 69 24 108.5t60 39.5q58 0 80.5 -38.5t22.5 -67.5t-9.5 -123.5t-65.5 -382.5q275 58 349 58q104 0 104 -74t-105 -75q-58 0 -347 57q50 -241 89 -337q-36 -271 -53.5 -628.5t-26.5 -499.5h-57q-9 142 -26.5 499.5t-53.5 628.5q40 100 88 338
q-272 -58 -346 -58q-105 1 -105 75t104 74q76 0 348 -58z" />
    <glyph glyph-name="daggerdbl" unicode="&#x2021;" horiz-adv-x="1087" 
d="M472 -516.5q-22 38.5 -22 67.5v52q0 52 33 236t41 230q-272 -58 -348 -58q-104 0 -104 74.5t105 74.5q56 0 346 -58q-12 58 -37.5 196t-50.5 204q24 61 50 199.5t38 196.5q-272 -58 -346 -58q-105 0 -105 74t104 75q76 0 348 -58q-74 426 -74 441v52q0 86 34.5 109
t60.5 23q48 0 70 -38.5t22 -91.5q-8 -153 -75 -495q275 58 349 58q104 -1 104 -75t-105 -74q-58 0 -347 57q12 -58 37.5 -193t51.5 -202q-21 -55 -49 -198.5t-40 -201.5q276 58 347 58q105 0 105 -74.5t-104 -74.5q-74 0 -349 58q66 -337 75 -491q0 -88 -35 -110.5
t-71.5 -22.5t-58.5 38.5z" />
    <glyph glyph-name="bullet" unicode="&#x2022;" horiz-adv-x="821" 
d="M102 766q0 127 90 215t218 88q129 0 219 -89t90 -214.5t-90.5 -214t-219 -88.5t-218 88t-89.5 215z" />
    <glyph glyph-name="ellipsis" unicode="&#x2026;" horiz-adv-x="1610" 
d="M1476 98q0 -28 -10 -51.5t-26.5 -41.5t-38 -28t-58 -10t-71.5 38.5t-35 79.5q0 68 36 107.5t73 39.5t58.5 -10.5t37.5 -28.5t25 -42.5t9 -52.5zM923 98q0 -28 -10 -51.5t-26.5 -41.5t-38 -28t-58 -10t-71.5 38.5t-35 79.5q0 68 36 107.5t73 39.5t58.5 -10.5t37.5 -28.5
t25 -42.5t9 -52.5zM370 98q0 -28 -10 -51.5t-26.5 -41.5t-38 -28t-58 -10t-71.5 38.5t-35 79.5q0 68 36 107.5t73 39.5t58.5 -10.5t37.5 -28.5t25 -42.5t9 -52.5z" />
    <glyph glyph-name="perthousand" unicode="&#x2030;" horiz-adv-x="2644" 
d="M1616 89.5q-100 -120.5 -275 -123.5t-274.5 111.5t-99.5 271.5t112 277.5t277 120.5t262.5 -112.5t97.5 -268.5t-100 -276.5zM1540 328q0 36 -3.5 73.5t-18 98t-59 114t-110.5 53.5q-111 0 -157.5 -86.5t-46.5 -208.5q0 -121 34 -192.5t72.5 -105t96.5 -33.5t95 30.5
t58.5 75.5t30 95t8.5 86zM180 1344q100 119 275 123t273.5 -109.5t98.5 -271.5t-111 -278.5t-275 -120.5t-262.5 112.5t-98.5 268.5q0 157 100 276zM1506 1385l-1162 -1420l-87 72l1156 1430zM302 871.5q46 -104.5 151 -104.5t151.5 87t46.5 202q0 215 -70.5 276.5
t-128.5 61.5t-95.5 -31t-69 -93.5t-31.5 -178.5q0 -115 46 -219.5zM2476 89.5q-100 -120.5 -275 -123.5t-274.5 111.5t-99.5 271.5t112 277.5t277 120.5t262.5 -112.5t97.5 -268.5t-100 -276.5zM2400 328q0 36 -3.5 74t-18 99t-59 113.5t-110.5 51.5q-111 -1 -157.5 -87
t-46.5 -207t34 -192.5t72.5 -105t96.5 -33.5t95 30.5t58.5 75.5t30 95t8.5 86z" />
    <glyph glyph-name="guilsinglleft" unicode="&#x2039;" horiz-adv-x="784" 
d="M64 569l555 555l66 -65l-400 -486v-4l404 -518l-64 -65l-561 575v8z" />
    <glyph glyph-name="guilsinglright" unicode="&#x203a;" horiz-adv-x="784" 
d="M719 569v-8l-561 -575l-64 65l404 518v4l-400 486l66 65z" />
    <glyph glyph-name="fraction" unicode="&#x2044;" horiz-adv-x="975" 
d="M1009 1402l-969 -1435l-77 53l956 1447z" />
    <glyph glyph-name="uni2074" unicode="&#x2074;" horiz-adv-x="825" 
d="M430 1268h-2l-248 -347l250 -4v351zM631 625h-301v59q84 3 92.5 54.5t8.5 81.5v20h-347v61l408 566h54v-553h116v-74h-115v-149l84 4v-70z" />
    <glyph glyph-name="Euro" unicode="&#x20ac;" horiz-adv-x="1556" 
d="M448 808q-3 -41 -3 -87t4 -92l565 -2l-57 -115l-487 -2q48 -198 181 -314t314 -116q285 0 453 227l53 -43q-215 -297 -559 -297q-253 0 -420.5 149t-217.5 393l-202 -1l29 123l159 -1q-3 40 -3 84t6 93h-191l29 123l185 -1q60 234 226.5 386t413.5 152q201 0 380 -118
l3 101h111l-41 -414h-74q-52 345 -365 345q-171 0 -301 -120t-175 -332l689 -3l-55 -115z" />
    <glyph glyph-name="uni2113" unicode="&#x2113;" horiz-adv-x="907" 
d="M541 1483q-156 0 -156 -293v-399q290 323 290 505q0 144 -53 165.5t-81 21.5zM577 46q163 0 253 282l57 -12q-62 -241 -175.5 -295t-173.5 -54q-108 0 -188 55t-110 135q-31 81 -31 249v105l-187 -185l-42 40l229 231v514q0 219 89.5 332t241.5 113t183.5 -85t31.5 -138
q0 -113 -72 -247t-298 -388v-363q0 -289 192 -289z" />
    <glyph glyph-name="uni2116" unicode="&#x2116;" horiz-adv-x="2372" 
d="M1528 624h727v-135l-727 -8v143zM1745.5 932.5q50.5 -85.5 139.5 -82.5t135 73.5t46 152.5q0 152 -48 238t-138 83q-91 -3 -138 -74t-47 -188t50.5 -202.5zM348 285q0 -138 -4 -203l148 8v-90h-375v68q82 0 108 46t29 115v1123l-137 -9v91h244l872 -1167h4v937
q0 86 6 148l-147 -9v91h377v-68q-102 -4 -120 -55.5t-19 -96.5t-2 -100v-1147h-99l-885 1190v-872zM2115.5 1374q91.5 -93 93.5 -244t-92 -251t-238 -100t-238.5 93t-94.5 241q0 147 96 250.5t239 103.5t234.5 -93z" />
    <glyph glyph-name="trademark" unicode="&#x2122;" horiz-adv-x="2187" 
d="M191 1163h-62l7 271h743l8 -271h-61q-4 106 -27.5 139t-52.5 44.5t-74 11.5l-90 -1v-328q0 -328 -2 -339l94 4v-73h-334v57q78 0 86.5 49.5t8.5 77.5v551l-131 -1q-63 -1 -88 -49.5t-25 -142.5zM1925 1262l33 -537v-35l101 4v-71h-338v57h12q48 5 65.5 37.5t17.5 60.5
t-28 471h-2l-260 -637h-96q-244 545 -289 681h-2q0 -38 -2 -72l-16 -447q-5 -66 -11 -86l101 6v-69h-289v57q81 3 95.5 86t21.5 333.5t9 255.5l-87 -5v82h264l182 -439q21 -51 43 -106t49 -115h2q105 240 270 660h241v-68q-87 -3 -87 -104z" />
    <glyph glyph-name="uni2126" unicode="&#x2126;" horiz-adv-x="1599" 
d="M117 758q0 98 18.5 181t76.5 203.5t213 222.5t374 102q334 0 506 -209.5t172 -481.5q0 -214 -150.5 -391t-344.5 -250v-2h170q139 0 180.5 21.5t56.5 49.5t15 72h61l-12 -276h-543v154q139 37 247.5 193.5t112.5 369.5q6 268 -119.5 468t-353.5 200q-147 0 -313 -131.5
t-166 -515.5q0 -110 35.5 -221t119.5 -228t232 -135v-154h-536l-13 276h62q0 -85 56.5 -114t195.5 -29h145v2q-211 58 -315 187.5t-143.5 233.5t-39.5 202z" />
    <glyph glyph-name="estimated" unicode="&#x212e;" horiz-adv-x="1180" 
d="M586 974q-168 0 -281 -117v-279h570v279q-121 117 -289 117zM589 -26q-228 0 -366.5 152t-138.5 381t140.5 381.5t369.5 152.5q230 0 362 -151.5t140 -382.5h-791v-349q122 -114 284 -114q242 0 378 231l68 -41q-171 -260 -446 -260z" />
    <glyph glyph-name="partialdiff" unicode="&#x2202;" horiz-adv-x="1042" 
d="M555 948q-117 0 -210 -138t-93 -347t58.5 -313.5t150.5 -104.5q204 0 253.5 264t49.5 412l-1 101q-68 126 -208 126zM543 1030q129 0 214 -87q-25 336 -164 438.5t-311 102.5h-24v69q34 3 107 3t161.5 -30.5t185.5 -110t157.5 -268t60.5 -415.5q0 -407 -142.5 -586
t-363.5 -179q-147 0 -247.5 119.5t-100.5 331.5q0 269 137.5 440.5t329.5 171.5z" />
    <glyph glyph-name="uni2206" unicode="&#x2206;" horiz-adv-x="1430" 
d="M1147 118l-474 1216l-447 -1216h921zM57 0l560 1467h163l594 -1467h-1317z" />
    <glyph glyph-name="product" unicode="&#x220f;" horiz-adv-x="1628" 
d="M254 1204q0 94 7 148l-148 -9v91h1402v-68q-102 -4 -121 -55.5t-19.5 -96.5t-0.5 -100v-1392q0 -110 -6 -162l147 8v-90h-461v68q104 4 122.5 55t19 96.5t0.5 99.5v1556l-763 -9v-1622q0 -116 -7 -162l148 8v-90h-461v68q103 4 121.5 55t19 96.5t0.5 99.5v1407z" />
    <glyph glyph-name="summation" unicode="&#x2211;" horiz-adv-x="1305" 
d="M862 -446q276 0 276 323h70l-12 -399h-1118v90q65 0 141 133l414 723l-424 803q-47 88 -52 121l-94 -5v91h1082l10 -359h-68q0 237 -104 262t-159 25h-13l-469 -10q26 -37 53 -88l391 -762l-440 -782q-59 -104 -103 -160q453 -6 467 -6h152z" />
    <glyph glyph-name="minus" unicode="&#x2212;" horiz-adv-x="1212" 
d="M150 655l912 -4v-125l-912 -4v133z" />
    <glyph glyph-name="uni2215" unicode="&#x2215;" horiz-adv-x="975" 
d="M1009 1402l-967 -1435l-79 54l954 1446z" />
    <glyph glyph-name="uni2219" unicode="&#x2219;" horiz-adv-x="600" 
d="M388.5 760.5q34.5 -38.5 34.5 -80.5t-10 -66t-26.5 -42t-38 -28t-58 -10t-71.5 38.5t-35 79.5t10 65.5t36 53t75 28.5t83.5 -38.5z" />
    <glyph glyph-name="radical" unicode="&#x221a;" horiz-adv-x="1726" 
d="M4 1024h401l302 -771l442 1512h624v-85l-542 8l-500 -1694h-102l-320 786q-50 121 -59 166l-246 6v72z" />
    <glyph glyph-name="infinity" unicode="&#x221e;" horiz-adv-x="1792" 
d="M532 432q78 0 160.5 52.5t148.5 158.5q-11 19 -55.5 97.5t-110.5 157.5t-177 79t-184.5 -71.5t-73.5 -194.5q0 -124 78 -201.5t214 -77.5zM1482 515.5q71 83.5 71 207.5t-67 204.5t-173 80.5q-210 0 -364 -235q88 -167 160.5 -254t187.5 -87q114 0 185 83.5zM888 565
q-140 -280 -389 -280q-80 0 -149.5 39.5t-132.5 130.5t-63 269q0 177 71 264t136.5 119t136.5 32q129 0 220 -70t183 -214q100 202 219 248t196 46t201 -66t124 -376q0 -180 -96 -305.5t-256 -125.5t-253 102t-148 187z" />
    <glyph glyph-name="integral" unicode="&#x222b;" horiz-adv-x="817" 
d="M204 -474h8q52 0 86 58t34 174v14l-24 1315v19q0 314 122 382t203 68t142 -38.5t61 -107.5q0 -35 -20 -60.5t-50 -25.5q-47 0 -68 25t-21 50t11 52q-21 31 -62 31q-76 0 -109 -50.5t-33 -176.5v-16l24 -1326v-20q0 -319 -123 -383.5t-187 -64.5q-106 0 -162 39t-56 107
q0 37 22 62.5t52 25.5q47 0 66 -26.5t19 -51t-9 -46.5q20 -29 74 -29z" />
    <glyph glyph-name="approxequal" unicode="&#x2248;" horiz-adv-x="1212" 
d="M419 583q48 0 89 -11t73 -27t58.5 -35t72 -45.5t114.5 -26.5q130 0 236 91v-121q-95 -100 -244 -100q-86 0 -140 27t-82 45.5t-77 45.5t-103 27q-87 0 -142 -23.5t-122 -69.5v121q107 80 163 91t104 11zM419 911q48 0 89 -11t73 -27t58.5 -35t72 -45.5t114.5 -26.5
q130 0 236 91v-121q-93 -100 -244 -100q-86 0 -140 27t-82 45.5t-76 45t-103 26.5q-91 0 -138.5 -20.5t-126.5 -71.5v121q107 80 163 91t104 11z" />
    <glyph glyph-name="notequal" unicode="&#x2260;" horiz-adv-x="1145" 
d="M115 879l571 -3l169 254l94 -65l-127 -189l205 -1v-119l-286 -2l-176 -262l462 -2v-119l-544 -3l-192 -286l-90 65l147 221l-233 -1v127l316 -2l174 262l-490 -2v127z" />
    <glyph glyph-name="lessequal" unicode="&#x2264;" horiz-adv-x="1186" 
d="M120 746l912 405v-127l-773 -340l773 -342v-131l-912 397v138zM1031 0h-912v115l912 -9v-106z" />
    <glyph glyph-name="greaterequal" unicode="&#x2265;" horiz-adv-x="1186" 
d="M1068 620l-912 -405v127l773 340l-773 342v131l912 -397v-138zM1069 0h-912v106l912 9v-115z" />
    <glyph glyph-name="lozenge" unicode="&#x25ca;" horiz-adv-x="997" 
d="M525 -34h-53l-398 754v54l408 782h53l387 -768v-53zM507 169h4l295 590l-299 605h-5l-299 -603z" />
    <glyph glyph-name="uniE0FF" unicode="&#xe0ff;" horiz-adv-x="539" 
 />
    <glyph glyph-name="uniEFFD" unicode="&#xeffd;" horiz-adv-x="1083" 
d="M272 77h508v870h-508v-870zM102 1024h848v-1024h-848v1024z" />
    <glyph glyph-name="uniF000" unicode="&#xf000;" horiz-adv-x="539" 
 />
    <glyph glyph-name="Cedilla" unicode="&#xf407;" horiz-adv-x="618" 
d="M485 -165q41 -41 41 -94t-21.5 -87t-99 -94t-301.5 -92l-12 78q172 30 211 83t39 83q0 65 -66 65q-47 0 -90 -28l-73 34l59 233h118l-55 -173q55 33 132 33t118 -41z" />
    <glyph glyph-name="Circumflex" unicode="&#xf408;" horiz-adv-x="963" 
d="M489 1907h5l376 -289l-45 -70l-340 181h-4l-348 -179l-41 66z" />
    <glyph glyph-name="Ring" unicode="&#xf40c;" horiz-adv-x="655" 
d="M487 1861.5q70 -55.5 72 -159.5t-67 -171t-193 -67t-164.5 82.5t-40.5 137.5t20.5 97.5t71.5 89t141 46.5t160 -55.5zM213 1696q0 -70 32.5 -115t82.5 -45t82 38.5t32 111.5q0 74 -32.5 117.5t-83.5 43.5h-7q-48 -3 -77 -42t-29 -109z" />
    <glyph glyph-name="Tilde" unicode="&#xf40d;" horiz-adv-x="975" 
d="M651 1720q92 0 166 133l66 -32q-80 -230 -244 -230q-91 0 -185.5 73t-139.5 73t-79.5 -33t-72.5 -90l-70 39q35 88 101 148.5t118 61.5q53 1 85.5 -9.5t59.5 -26.5t50.5 -35t61.5 -45.5t83 -26.5z" />
    <glyph glyph-name="Acute" unicode="&#xf6c9;" horiz-adv-x="594" 
d="M113 1556l-45 60l258 246q50 44 92 35.5t60 -57.5t-68 -101z" />
    <glyph glyph-name="Caron" unicode="&#xf6ca;" horiz-adv-x="963" 
d="M473 1528h-4l-377 289l45 69l340 -180h4l348 184l41 -65z" />
    <glyph glyph-name="Dieresis" unicode="&#xf6cb;" horiz-adv-x="776" 
d="M281.5 1626.5q-33.5 -37.5 -67.5 -37.5t-54 10t-35 27.5t-24 41t-9 50.5t9 51t25 42t36 28.5t43 10.5t43 -10.5t43.5 -38.5t23.5 -82.5t-33.5 -92zM649.5 1626.5q-33.5 -37.5 -67.5 -37.5t-54 10t-35 27.5t-24 41t-9 50.5t9 51t25 42t36 28.5t43 10.5t43 -10.5
t43.5 -38.5t23.5 -82.5t-33.5 -92z" />
    <glyph glyph-name="Grave" unicode="&#xf6ce;" horiz-adv-x="594" 
d="M160 1739q-58 35 -65 77.5t34 76t115 -30.5l258 -246l-45 -60z" />
    <glyph glyph-name="f_i" unicode="&#xfb01;" horiz-adv-x="1276" 
d="M518 0h-415v61q84 0 102 54.5t18 195.5l-4 621h-168v92h168v4q0 382 194.5 455t302.5 73q179 0 273.5 -50.5t94.5 -129.5q0 -41 -23 -69t-57 -28q-54 0 -77.5 28t-23.5 58.5t11 56.5q-79 57 -201 57q-223 0 -270 -141.5t-47 -237.5v-76h468q133 0 160 20h60v-827
q0 -94 -9 -139l129 6v-84h-417v61q84 0 102.5 56t18.5 194v508q0 67 8 133l-520 -11l2 -726q0 -92 -9 -137l129 6v-84z" />
    <glyph glyph-name="f_l" unicode="&#xfb02;" horiz-adv-x="1305" 
d="M938 1397q-120 73 -322 73q-113 0 -166.5 -72t-53.5 -218v-156h276v-81l-276 -4l2 -722q0 -94 -9 -139l129 6v-84h-417v61q84 0 102 56t18 194l-2 624l-168 -3v92h168v63q0 225 102 347t275 122q93 0 164.5 -15t106 -21.5t81.5 -6.5t105 33h59v-1379q0 -54 -6 -89l129 6
v-84h-418v61q84 0 102.5 56t18.5 194v1086z" />
    <glyph glyph-name="foundry" horiz-adv-x="2163" 
d="M858 528q-20 0 -27 -32h52q0 32 -25 32zM1065 418q14 0 22 6v31h-16q-27 -1 -27 -19t21 -18zM1917 506q0 -31 25 -31q20 0 20 31t-20 31q-25 0 -25 -31zM1534 422q29 0 29 51t-29 51t-29 -51t29 -51zM1419 408q0 -39 -43 -39t-43 39q0 16 10.5 28.5t32.5 12.5t32.5 -12.5
t10.5 -28.5zM1206 584h-24v63h96v-213h29v-57q-19 -8 -45 -8q-56 0 -56 57v158zM578 514v64h69l21 -33q4 9 19 23t29 14t27 -4v-64h-69v-80h35v-61h-127v61h20v80h-24zM1661 514v64h70l20 -33q5 12 20 25q15 12 29 12t27 -4v-64h-70v-80h35v-61h-127v61h18v80h-22zM950 506
q0 -26 -4 -47h-112q8 -25 51 -25h59v-53q-28 -14 -78 -14t-78 27.5t-28 76.5t24.5 80t70.5 31t70.5 -25t24.5 -51zM1065 582q94 0 94 -78v-70h23v-55q-18 -10 -46 -10t-40 14q-20 -16 -50 -16t-50.5 16t-20.5 47q0 62 80 62h32v2q0 20 -45 20h-51v53q48 15 74 15zM1532 367
q-100 0 -100 106q0 51 27.5 80t74.5 29t74.5 -28t27.5 -79t-27.5 -79.5t-76.5 -28.5zM244 647q31 0 80 -14v-82h-64v31q-6 2 -26 2t-36 -20.5t-16 -53.5q0 -76 76 -76h66v-51q-36 -16 -92 -16t-92 35.5t-36 99.5t35 104.5t105 40.5zM408 283q-34 0 -48 14v53h35q33 0 43 23
h-28l-50 141h-20v64h78l28 -101l11 -49l22 86h-18v64h88v-64l-47 -156q-13 -45 -36.5 -60t-57.5 -15zM2034 582q16 0 28 -4v-64h-32q2 -4 2 -22t-22.5 -39t-55.5 -21t-39 2v-31h37q80 0 80 -73q0 -21 -13 -47h-55v59h-94q-21 17 -21 49q0 33 29 58q-29 16 -29 53t23.5 58.5
t62.5 21.5t66 -21q17 21 33 21z" />
    <glyph glyph-name="hungarumlaut.case" horiz-adv-x="797" 
d="M600 1843q47 44 87 19q60 -38 40 -102q-11 -34 -42 -48l-282 -130l-29 52zM252 1839q24 43 60 53t71 -23q36 -33 12 -85q-8 -17 -26 -33l-189 -170l-54 38z" />
    <glyph glyph-name="commaaccentcomb" horiz-adv-x="0" 
d="M407 -232q0 -66 -44 -146t-117 -153l-54 40q61 113 66 178t-16 166l141 32q24 -51 24 -117z" />
    <glyph glyph-name="Breve" horiz-adv-x="743" 
d="M375 1657q-94 0 -173 54t-127 157l55 24q54 -71 130 -90.5t131.5 -19.5t124.5 32t104 78l55 -24q-48 -103 -127 -157t-173 -54z" />
    <glyph glyph-name="noBreak" horiz-adv-x="539" 
 />
    </font>
</defs>
</svg>
