<?xml version="1.0" standalone="no"?>
<!DOCTYPE svg PUBLIC "-//W3C//DTD SVG 1.1//EN" "http://www.w3.org/Graphics/SVG/1.1/DTD/svg11.dtd" >
<svg xmlns="http://www.w3.org/2000/svg">
<metadata>
Created by FontPrep 20130207 at Thu Jun 11 14:47:40 2015
 By Shane Baldauf
Copyright (c) 2010 - 2012, Matt McInerney (matt@pixelspread.com), Pablo Impallari(impallari@gmail.com), Rodrigo Fuenzalida (hello@rfuenzalida.com) with Reserved Font Name "Raleway"
</metadata>
<defs>
<font id="2e4fef38243a232f976bd5356e1d047b" horiz-adv-x='1024' >
  <font-face 
    font-family="Raleway-ExtraBold"
    font-weight="800"
    font-stretch="normal"
    units-per-em="2048"
    panose-1="2 11 0 3 3 1 1 6 0 3"
    ascent="1638"
    descent="-410"
    x-height="1075"
    cap-height="1454"
    bbox="-399 -472.031 2417 1884"
    underline-thickness="102"
    underline-position="-102"
    unicode-range="U+0020-FB06"
  />
<missing-glyph horiz-adv-x="0" 
 />
    <glyph glyph-name="f_f" unicode="ff" horiz-adv-x="1382" 
d="M637 1167q-66 0 -94.5 -44t-28.5 -103v-70h236v62q0 63 2 80.5t3 32t5 18.5q-57 24 -123 24zM1208 1239q-131 0 -131 -152v-137h260v-248h-260v-702h-327v702h-236v-702h-328v702h-137v248h137v58q0 193 104.5 314.5t278.5 121.5q128 0 277 -60q110 132 293 132
q115 0 274 -64l-61 -246q-85 33 -144 33z" />
    <glyph glyph-name="f_i" unicode="fi" horiz-adv-x="1218" 
d="M670 1239q-78 0 -117 -43t-39 -109v-137h594v-950h-328v702h-266v-702h-328v702h-137v248h137v125q0 191 127 316t334 125t432 -148l-127 -248q-137 119 -282 119z" />
    <glyph glyph-name="f_l" unicode="fl" horiz-adv-x="1415" 
d="M829 1001q0 238 -159 238q-81 0 -118.5 -60t-37.5 -151v-78h162v-248h-162v-702h-328v702h-137v248h137v156q0 201 130 305.5t364 104.5t355.5 -115.5t121.5 -319.5v-688q0 -39 21.5 -79t66.5 -40t84 15.5t41 15.5l41 -264q-23 -23 -128 -40t-165 -17q-123 0 -206 69
t-83 172v776z" />
    <glyph glyph-name="f_f_i" unicode="ffi" horiz-adv-x="1781" 
d="M637 1167q-66 0 -94.5 -44t-28.5 -103v-70h236v64q0 63 2 79.5t3 31t5 18.5q-57 24 -123 24zM1516 1120q-132 119 -285 119q-76 0 -115 -43t-39 -109v-137h594v-950h-330v702h-264v-702h-327v702h-236v-702h-328v702h-137v248h137v58q0 193 104.5 314.5t278.5 121.5
q128 0 277 -60q132 132 347 132t449 -148z" />
    <glyph glyph-name="f_f_l" unicode="ffl" horiz-adv-x="1976" 
d="M641 1167q-127 0 -127 -145v-72h236v90q0 89 8 105q-53 22 -117 22zM1228 1516q256 0 374 -119t118 -316v-688q0 -39 21.5 -79t68.5 -40t84 15.5t39 15.5l41 -264q-23 -23 -128.5 -40t-165.5 -17q-126 0 -206.5 70t-80.5 171v776q0 238 -160 238q-118 0 -137 -85
t-19 -126v-78h162v-248h-162v-702h-327v702h-236v-702h-328v702h-137v248h137v62q0 196 105.5 314t275.5 118q130 0 279 -60q126 132 382 132z" />
    <glyph glyph-name=".notdef" horiz-adv-x="0" 
 />
    <glyph glyph-name=".null" horiz-adv-x="0" 
 />
    <glyph glyph-name="nonmarkingreturn" horiz-adv-x="0" 
 />
    <glyph glyph-name="space" unicode=" " horiz-adv-x="477" 
 />
    <glyph glyph-name="exclam" unicode="!" horiz-adv-x="628" 
d="M152 0v340h327v-340h-327zM152 578v890h327v-890h-327z" />
    <glyph glyph-name="quotedbl" unicode="&#x22;" horiz-adv-x="876" 
d="M485 1063v424h277v-424h-277zM113 1063v424h278v-424h-278z" />
    <glyph glyph-name="numbersign" unicode="#" horiz-adv-x="1513" 
d="M813 610l53 234h-186l-55 -234h188zM1438 844h-310l-55 -234h264v-243h-323l-88 -367h-262l90 367h-189l-88 -367h-262l90 367h-229v243h289l55 234h-244v225h299l94 385h262l-96 -385h189l94 385h262l-96 -385h254v-225z" />
    <glyph glyph-name="dollar" unicode="$" horiz-adv-x="1312" 
d="M477 1047q0 -51 36 -80t108 -54v252q-144 -12 -144 -118zM872 395q0 53 -43 83t-114 54v-245q157 6 157 108zM1093.5 102q-141.5 -107 -354.5 -116v-238h-143v240q-298 25 -528 176l147 293q24 -30 152 -91t254 -75v272l-99 29q-209 65 -301 153t-92 248
q0 203 129.5 325.5t337.5 143.5v207h143v-207q212 -19 451 -155l-146 -279q-16 21 -123 71t-206 64v-278l65 -17q238 -66 346.5 -158t108.5 -296q0 -205 -141.5 -312z" />
    <glyph glyph-name="percent" unicode="%" horiz-adv-x="1679" 
d="M215 115l578 663l524 695l147 -132l-559 -647l-545 -712zM1255.5 139q51.5 0 87 46t35.5 111t-37 111t-87 46t-85.5 -46.5t-35.5 -112t35.5 -110.5t87 -45zM1255.5 -20q-73.5 0 -137 24.5t-112 67.5t-75 100t-26.5 122.5t26.5 124t75 101.5t112 67.5t137 24.5t137 -24.5
t111.5 -67.5t75 -101.5t27 -124t-27 -122.5t-75 -100t-111.5 -67.5t-137 -24.5zM424 1001q51 0 87 46.5t36 112t-37 110.5t-87 45t-86 -46t-36 -111t36 -111t87 -46zM424 842q-74 0 -137.5 24.5t-111.5 67.5t-74.5 101.5t-26.5 124t26.5 122.5t74.5 100t111.5 68t137.5 25
t137.5 -25t111.5 -68t74.5 -100t26.5 -122.5t-26.5 -124t-74.5 -101.5t-111.5 -67.5t-137.5 -24.5z" />
    <glyph glyph-name="ampersand" unicode="&#x26;" horiz-adv-x="1501" 
d="M467 1131q0 -40 20.5 -67.5t73.5 -80.5q63 41 94 74t31 78t-28.5 71.5t-78.5 26.5t-81 -31t-31 -71zM508 598q-115 -89 -115 -165q0 -81 59.5 -139t179.5 -58q74 0 165 55zM78 426q0 218 229 389q-80 97 -108.5 159.5t-28.5 141.5q0 161 115.5 259t296.5 98
q268 0 336.5 -123.5t68.5 -225.5q0 -187 -221 -354l227 -242q58 131 58 293h266q-4 -282 -131 -493l313 -328h-430l-96 100q-183 -120 -404 -120t-356 133t-135 313z" />
    <glyph glyph-name="quotesingle" unicode="'" horiz-adv-x="495" 
d="M111 1069v418h276v-418h-276z" />
    <glyph glyph-name="parenleft" unicode="(" horiz-adv-x="663" 
d="M61 711q0 275 123 509t189 345l250 -103q-148 -230 -202 -439.5t-54 -346.5q0 -241 247 -680l-239 -117q-314 469 -314 832z" />
    <glyph glyph-name="parenright" unicode=")" horiz-adv-x="663" 
d="M49 -4q248 438 248 680q0 215 -87 436.5t-169 349.5l250 103q150 -253 207 -397t80.5 -248.5t23.5 -209.5q0 -361 -315 -831z" />
    <glyph glyph-name="asterisk" unicode="*" horiz-adv-x="724" 
d="M145 1044l97 154l-146 43l43 137l150 -69l-13 164h170l-12 -164l152 69l43 -137l-146 -43l97 -154l-121 -79l-97 161l-96 -161z" />
    <glyph glyph-name="plus" unicode="+" horiz-adv-x="872" 
d="M776 858v-262h-192v-213h-295v213h-195v262h195v213h295v-213h192z" />
    <glyph glyph-name="comma" unicode="," horiz-adv-x="509" 
d="M47 -39q42 0 59 23.5t19 48.5v301h266v-363q0 -128 -104 -184.5t-240 -56.5v231z" />
    <glyph glyph-name="hyphen" unicode="-" horiz-adv-x="849" 
d="M111 416v295h630v-295h-630z" />
    <glyph glyph-name="period" unicode="." horiz-adv-x="487" 
d="M111 0v334h266v-334h-266z" />
    <glyph glyph-name="slash" unicode="/" horiz-adv-x="1503" 
d="M1452 1454l-1034 -1454h-361l1033 1454h362z" />
    <glyph glyph-name="zero" unicode="0" horiz-adv-x="1257" 
d="M834 600q0 143 -57.5 232.5t-148.5 89.5t-148.5 -89.5t-57.5 -232.5t57.5 -231t148.5 -88t148.5 88t57.5 231zM1165 600q0 -135 -41 -248.5t-112.5 -196.5t-170 -129t-213 -46t-212 46t-169 129t-112.5 196.5t-41 248.5t41 249t112.5 196.5t169 130t212 47.5t213 -47.5
t170 -130t112.5 -196.5t41 -249z" />
    <glyph glyph-name="one" unicode="1" horiz-adv-x="1060" 
d="M1012 295v-295h-885v295h291v522q-33 -46 -141.5 -95.5t-190.5 -49.5v303q63 0 187 75.5t145 118.5h334v-874h260z" />
    <glyph glyph-name="two" unicode="2" horiz-adv-x="1196" 
d="M76 0q0 197 69 315.5t246 214.5q216 115 259.5 145t60 52.5t16.5 64.5t-42 77.5t-123 35.5t-144.5 -42t-122.5 -109l-207 241q71 79 218 137t344 58q196 0 314.5 -96.5t118.5 -267.5t-106 -246.5t-174 -114.5t-126 -78.5t-95 -91.5h524v-295h-1030z" />
    <glyph glyph-name="three" unicode="3" horiz-adv-x="1163" 
d="M545 899q-169 0 -269 -154l-206 238q104 136 268 166.5t258 30.5q204 0 338.5 -100t134.5 -263q0 -121 -73 -216.5t-189 -115.5q128 -24 206.5 -124t78.5 -244q0 -192 -151.5 -305t-403.5 -113q-309 0 -486 182l176 234q109 -117 295 -117q229 0 230 170q0 186 -285 186
h-59v236h67q113 0 177.5 47t64.5 120t-47 107.5t-125 34.5z" />
    <glyph glyph-name="four" unicode="4" horiz-adv-x="1175" 
d="M643 315v363l-276 -363h276zM606 -260v280h-565v293l670 856h223v-854h180v-295h-180v-280h-328z" />
    <glyph glyph-name="five" unicode="5" horiz-adv-x="1138" 
d="M596 659q211 0 347 -130t136 -343q0 -214 -153.5 -352.5t-395.5 -138.5q-160 0 -286.5 63.5t-194.5 178.5l184 202q59 -72 138 -114.5t167 -42.5t146.5 55t58.5 145t-53.5 143.5t-123.5 53.5q-138 0 -193 -94h-285q0 5 170 884h723v-299h-485l-43 -247q37 36 143 36z" />
    <glyph glyph-name="six" unicode="6" horiz-adv-x="1243" 
d="M854 487q0 93 -67 158.5t-159 65.5t-158.5 -64.5t-66.5 -158.5t67.5 -163t158.5 -69t158 69t67 162zM657 969q218 0 363 -139t145 -346q0 -208 -153.5 -356t-394.5 -148t-385 182t-144 533t152 561t424 210t452 -215l-184 -209q-51 66 -123 103t-152 37
q-121 0 -191.5 -86t-74.5 -244q87 117 266 117z" />
    <glyph glyph-name="seven" unicode="7" horiz-adv-x="1196" 
d="M70 897v299h1126l-717 -1454h-370l571 1155h-610z" />
    <glyph glyph-name="eight" unicode="8" horiz-adv-x="1245" 
d="M461 1041q0 -48 14 -74.5t37 -44t52.5 -26.5t76.5 -9t96 38.5t49 101.5q0 62 -48 100t-116 38t-114.5 -38t-46.5 -86zM621 641q-84 0 -143.5 -49t-59.5 -130t60 -132t146 -51q85 0 144 51.5t59 133.5t-61 129.5t-145 47.5zM956 776q205 -127 205 -332t-156 -333.5
t-382 -128.5t-382.5 131t-156.5 333t205 330q-68 37 -115 108.5t-47 161.5t46 169t117.5 131.5t160 80t224.5 27.5t289.5 -113t153.5 -301q0 -80 -44.5 -151t-117.5 -113z" />
    <glyph glyph-name="nine" unicode="9" horiz-adv-x="1208" 
d="M598 893q-91 0 -158 -69t-67 -163.5t66 -158.5t158 -64t159 65t67 158.5t-67 162.5t-158 69zM569 180q-218 0 -363 139t-145 346q0 208 154 356t396 148q241 0 384.5 -182t143.5 -533q0 -352 -152.5 -561.5t-424.5 -209.5q-271 0 -451 215l184 208q107 -139 274 -139
q121 0 191.5 86t75.5 244q-87 -117 -267 -117z" />
    <glyph glyph-name="colon" unicode=":" horiz-adv-x="534" 
d="M133 0v334h268v-334h-268zM133 729v334h268v-334h-268z" />
    <glyph glyph-name="semicolon" unicode=";" horiz-adv-x="542" 
d="M61 -39q40 0 58 23.5t20 48.5v301h267v-363q0 -127 -104 -184t-241 -57v231zM139 729v334h267v-334h-267z" />
    <glyph glyph-name="less" unicode="&#x3c;" horiz-adv-x="1046" 
d="M66 600l864 524v-348l-389 -246l389 -231v-367l-864 512v156z" />
    <glyph glyph-name="equal" unicode="=" horiz-adv-x="890" 
d="M121 668v209h651v-209h-651zM121 254v209h651v-209h-651z" />
    <glyph glyph-name="greater" unicode="&#x3e;" horiz-adv-x="1046" 
d="M981 444l-866 -512v367l389 231l-389 246v348l866 -524v-156z" />
    <glyph glyph-name="question" unicode="?" horiz-adv-x="1011" 
d="M236 0v307h268v-307h-268zM229 502q0 222 151 304q40 22 85 45t116.5 77t71.5 130q0 75 -48 112.5t-100 37.5q-84 0 -127 -38t-93 -109l-211 147q53 125 168.5 195t275.5 70t291 -102.5t131 -307.5q0 -117 -57.5 -209.5t-189 -159.5t-163.5 -108t-32 -84h-269z" />
    <glyph glyph-name="at" unicode="@" horiz-adv-x="1720" 
d="M635 293q0 -88 50 -111.5t113 -23.5t156 43q101 51 101 141v57q-113 39 -217 39q-203 0 -203 -145zM1330 -33q-190 0 -214 160q-145 -145 -356 -145q-156 0 -240 84t-84 215q0 159 117.5 236t253.5 77t250 -47q0 108 -51 164.5t-196 56.5q-146 0 -247 -88l-57 170
q150 102 356 102q245 0 308 -105.5t71 -182t8 -144.5v-168q0 -120 19 -181.5t77 -61.5t89.5 39.5t54 112t22.5 206.5q0 133 -46 252t-132 206t-205.5 136t-338.5 49t-395.5 -178.5t-176.5 -457.5t167.5 -463.5t446.5 -184.5q102 0 173 22.5t149 55.5l37 -121
q-172 -82 -344 -82t-307.5 55.5t-236.5 155.5t-159.5 242.5t-58.5 322.5t64.5 322.5t229 289t492.5 146.5q150 0 290 -48t246.5 -145.5t171 -245t64.5 -343.5q0 -358 -123 -422t-189 -64z" />
    <glyph glyph-name="A" unicode="A" horiz-adv-x="1378" 
d="M690 1098l-174 -541h342zM-4 0l559 1454h272l557 -1454h-356l-113 326h-452l-111 -326h-356z" />
    <glyph glyph-name="B" unicode="B" horiz-adv-x="1400" 
d="M475 1167v-301h330q55 0 98 37t43 112t-38 113.5t-91 38.5h-342zM999 439q0 69 -38.5 116t-98.5 47h-387v-317h373q66 0 108.5 42.5t42.5 111.5zM1341 373q0 -182 -141 -277.5t-352 -95.5h-709v1454h809q146 0 239 -113.5t93 -259.5q0 -104 -52 -196t-157 -140
q125 -37 197.5 -131t72.5 -241z" />
    <glyph glyph-name="C" unicode="C" horiz-adv-x="1357" 
d="M55 735q0 135 47.5 265t137.5 232.5t220 166t310 63.5t323.5 -88t213.5 -229l-258 -180q-42 104 -124 151t-175 47q-169 0 -261 -130.5t-92 -306.5t98.5 -307.5t256.5 -131.5q91 0 151 34.5t92.5 72.5t53.5 93l276 -161q-65 -156 -232.5 -247t-334.5 -91t-292.5 64.5
t-216.5 171t-142.5 241.5t-51.5 270z" />
    <glyph glyph-name="D" unicode="D" horiz-adv-x="1468" 
d="M963.5 1041.5q-101.5 117.5 -281.5 117.5h-207v-864h207q183 0 283 122t100 314q0 193 -101.5 310.5zM139 0v1454h543q344 0 534.5 -205t190.5 -529q0 -323 -198.5 -521.5t-526.5 -198.5h-543z" />
    <glyph glyph-name="E" unicode="E" horiz-adv-x="1230" 
d="M1161 295v-295h-1022v1454h1004v-295h-668v-282h574v-273h-574v-309h686z" />
    <glyph glyph-name="F" unicode="F" horiz-adv-x="1157" 
d="M139 0v1454h987v-295h-651v-313h537v-273h-537v-573h-336z" />
    <glyph glyph-name="G" unicode="G" horiz-adv-x="1443" 
d="M727 -10q-137 0 -259 61.5t-213 163.5t-144.5 238.5t-53.5 284.5t53.5 281.5t147.5 232t221 155.5t297 57t315.5 -85t217.5 -232l-252 -189q-45 98 -130 152.5t-173 54.5q-162 0 -258.5 -127t-96.5 -313q0 -187 100 -311.5t257 -124.5q185 0 325 178v49h-280v244h559
v-760h-279v141q-151 -151 -354 -151z" />
    <glyph glyph-name="H" unicode="H" horiz-adv-x="1529" 
d="M1391 1454v-1454h-336v596h-580v-596h-336v1454h336v-563h580v563h336z" />
    <glyph glyph-name="I" unicode="I" horiz-adv-x="614" 
d="M139 0v1454h336v-1454h-336z" />
    <glyph glyph-name="J" unicode="J" horiz-adv-x="1019" 
d="M326 276q82 0 127 26t76.5 94t31.5 319v739h336v-739q0 -166 -17.5 -302.5t-108.5 -286t-439 -149.5q-184 0 -316 91l74 274q20 -16 87 -41t149 -25z" />
    <glyph glyph-name="K" unicode="K" horiz-adv-x="1386" 
d="M139 0v1454h336v-655l561 655h348l-544 -649l581 -805h-354l-426 616l-166 -180v-436h-336z" />
    <glyph glyph-name="L" unicode="L" horiz-adv-x="1206" 
d="M139 0v1454h336v-1159h705v-295h-1041z" />
    <glyph glyph-name="M" unicode="M" horiz-adv-x="1761" 
d="M1286 0v870l-315 -632h-180l-316 632v-870h-336v1454h365l377 -760l379 760h362v-1454h-336z" />
    <glyph glyph-name="N" unicode="N" horiz-adv-x="1554" 
d="M475 0h-336v1454h262l678 -854v854h336v-1454h-270l-670 831v-831z" />
    <glyph glyph-name="O" unicode="O" horiz-adv-x="1503" 
d="M493.5 417.5q94.5 -130.5 259.5 -130.5t258 131.5t93 310.5t-95 306.5t-258 127.5q-164 0 -258 -130t-94 -308q0 -177 94.5 -307.5zM748 -12q-154 0 -281 63.5t-218 167t-141.5 236.5t-50.5 275t52.5 275.5t145.5 234.5t221 161.5t282 60.5t280.5 -63.5t218 -168
t140.5 -237.5t49 -273t-52.5 -273.5t-144.5 -234.5t-219.5 -162.5t-281.5 -61.5z" />
    <glyph glyph-name="P" unicode="P" horiz-adv-x="1269" 
d="M475 762h275q59 0 102 51t43 147t-46 147.5t-112 51.5h-262v-397zM139 0v1454h621q201 0 338 -152.5t137 -342.5t-129.5 -340t-335.5 -150h-295v-469h-336z" />
    <glyph glyph-name="Q" unicode="Q" horiz-adv-x="1507" 
d="M1104 708q0 200 -95.5 328.5t-259.5 128.5t-257 -132t-93 -309t95 -306t256 -129q82 0 141 30l-229 254h315l76 -84q51 113 51 219zM57 730q0 142 52.5 275.5t145.5 235.5t221 162.5t282 60.5t280.5 -64.5t218 -169t140.5 -237.5t49 -270q0 -266 -170 -479l221 -244h-317
l-80 88q-163 -98 -334 -98q-172 0 -299 62.5t-218 166t-141.5 236.5t-50.5 275z" />
    <glyph glyph-name="R" unicode="R" horiz-adv-x="1392" 
d="M475 762h307q59 0 102.5 56t43.5 146t-49.5 142.5t-106.5 52.5h-297v-397zM139 0v1454h656q197 0 336 -152t139 -339q0 -133 -62.5 -246.5t-175.5 -175.5l334 -541h-379l-293 469h-219v-469h-336z" />
    <glyph glyph-name="S" unicode="S" horiz-adv-x="1261" 
d="M625 1167q-179 0 -179 -120q0 -65 60.5 -96t204.5 -72q143 -40 227 -73.5t175 -110t91 -267.5q0 -230 -155.5 -337t-394.5 -107t-396.5 68.5t-220.5 111.5l147 293q10 -10 55.5 -39t162.5 -80t262 -51q178 0 178 108q0 41 -27 67.5t-74 48t-110 40t-151 45.5
q-196 60 -289 148.5t-93 248.5q0 221 154.5 347t396.5 126q243 0 510 -159l-145 -279q-30 30 -153.5 84.5t-235.5 54.5z" />
    <glyph glyph-name="T" unicode="T" horiz-adv-x="1273" 
d="M1247 1159h-442v-1159h-336v1159h-444v295h1222v-295z" />
    <glyph glyph-name="U" unicode="U" horiz-adv-x="1525" 
d="M799.5 287q123.5 0 197.5 120.5t74 303.5v743h336v-743q0 -319 -161 -521t-487 -202t-484 204.5t-158 518.5v743h336v-743q0 -292 111.5 -358t235 -66z" />
    <glyph glyph-name="V" unicode="V" horiz-adv-x="1376" 
d="M346 1454l344 -1032l338 1032h354l-553 -1454h-280l-557 1454h354z" />
    <glyph glyph-name="W" unicode="W" horiz-adv-x="2162" 
d="M623 1452h311l145 -465l150 465h309l-244 -676l148 -391l366 1069h365l-580 -1454h-282l-230 569l-231 -569h-281l-579 1454h362l369 -1069l143 391z" />
    <glyph glyph-name="X" unicode="X" horiz-adv-x="1329" 
d="M348 1454l318 -502l317 502h363l-504 -737l487 -717h-362l-301 481l-301 -481h-365l487 717l-503 737h364z" />
    <glyph glyph-name="Y" unicode="Y" horiz-adv-x="1327" 
d="M829 0h-335v500l-510 954h364l314 -668l319 668h365l-517 -958v-496z" />
    <glyph glyph-name="Z" unicode="Z" horiz-adv-x="1275" 
d="M84 1159v295h1116v-252l-723 -907h731v-295h-1153v252l756 907h-727z" />
    <glyph glyph-name="bracketleft" unicode="[" horiz-adv-x="657" 
d="M137 -82v1598h438v-261h-137v-1077h137v-260h-438z" />
    <glyph glyph-name="backslash" unicode="\" horiz-adv-x="1363" 
d="M416 1454l891 -1454h-361l-893 1454h363z" />
    <glyph glyph-name="bracketright" unicode="]" horiz-adv-x="657" 
d="M82 -82v260h137v1077h-137v261h440v-1598h-440z" />
    <glyph glyph-name="asciicircum" unicode="^" horiz-adv-x="1236" 
d="M78 621l405 833h273l403 -833h-266l-272 563l-281 -563h-262z" />
    <glyph glyph-name="underscore" unicode="_" horiz-adv-x="757" 
d="M10 -295v295h738v-295h-738z" />
    <glyph glyph-name="grave" unicode="`" horiz-adv-x="550" 
d="M94 1495h297l107 -266l-207 -58z" />
    <glyph glyph-name="a" unicode="a" horiz-adv-x="1208" 
d="M354 354q0 -62 45 -100.5t107 -38.5q124 0 194 68q47 37 48 77v103q-94 35 -186 35q-91 0 -149.5 -41t-58.5 -103zM434 -20q-178 0 -283.5 98t-105.5 250t130 252t331 100q144 0 242 -45v49q0 186 -216 186q-159 0 -335 -118l-97 204q212 140 460 140t381.5 -115
t133.5 -336v-276q0 -49 18.5 -68.5t65.5 -24.5v-276q-75 -16 -162 -15q-168 2 -192 136l-6 49q-72 -92 -170.5 -141t-194.5 -49z" />
    <glyph glyph-name="b" unicode="b" horiz-adv-x="1308" 
d="M658 256q119 0 191.5 78.5t72.5 198.5t-69.5 202t-160.5 82q-90 0 -154.5 -53t-99.5 -133v-225q35 -70 96.5 -110t123.5 -40zM793 1096q201 0 332.5 -162.5t131.5 -400t-142.5 -395.5t-358.5 -158q-245 0 -359 198v-178h-286v1495h327v-596q113 197 355 197z" />
    <glyph glyph-name="c" unicode="c" horiz-adv-x="1167" 
d="M204.5 933q155.5 163 422.5 163q186 0 313 -79t190 -206l-319 -96q-63 102 -175 102t-181.5 -75.5t-69.5 -201.5t69 -205t171 -79q61 0 112 29.5t76 76.5l320 -98q-59 -125 -190 -204.5t-291 -79.5t-268 46t-221.5 162.5t-113.5 349t155.5 395.5z" />
    <glyph glyph-name="d" unicode="d" horiz-adv-x="1351" 
d="M647 256q68 0 129.5 40t95.5 110v225q-31 82 -98.5 134t-131.5 52q-113 0 -183 -83.5t-70 -203.5t71.5 -197t186.5 -77zM503 -20q-167 0 -309.5 160.5t-142.5 398.5t135 397.5t340 159.5q111 0 203 -53.5t141 -143.5v596h328v-1126q0 -49 18.5 -68.5t65.5 -24.5v-276
q-82 -16 -158 -16q-172 4 -196 137l-6 57q-59 -100 -155.5 -149t-263.5 -49z" />
    <glyph glyph-name="e" unicode="e" horiz-adv-x="1236" 
d="M622 860q-95 0 -158 -60.5t-73 -160.5h463q-10 102 -73.5 161.5t-158.5 59.5zM1200 564q0 -86 -8 -128h-795q8 -109 79 -165t152 -56t147.5 35t88.5 94l279 -78q-63 -127 -197 -206.5t-294 -79.5q-290 0 -446.5 159t-156.5 394t155 399t421 164t382.5 -122t154.5 -223
t38 -187z" />
    <glyph glyph-name="f" unicode="f" horiz-adv-x="808" 
d="M635 1239q-121 0 -121 -152v-137h250v-248h-250v-702h-328v702h-137v248h137v125q0 201 102.5 321t274.5 120q133 0 279 -64l-60 -246q-78 33 -147 33z" />
    <glyph glyph-name="g" unicode="g" horiz-adv-x="1308" 
d="M638 817q-116 0 -183.5 -85.5t-67.5 -202.5q0 -116 72.5 -194.5t194.5 -78.5q66 0 124 42t92 108v225q-33 86 -100.5 136t-131.5 50zM478 -4q-157 0 -291 157.5t-134 389.5t140 392.5t360 160.5q121 0 213 -52.5t147 -144.5v176h285v-1001q0 -243 -172.5 -387
t-450.5 -144q-174 0 -296.5 55.5t-215.5 159.5l175 179q59 -68 147.5 -108t168.5 -40q146 0 231 69t85 216v104q-49 -90 -142 -136t-250 -46z" />
    <glyph glyph-name="h" unicode="h" horiz-adv-x="1251" 
d="M1149 0h-328v604q0 104 -42 153.5t-113 49.5q-101 0 -157 -74t-71 -117v-616h-327v1495h327v-600q59 96 156.5 148.5t211.5 52.5q201 0 272 -117t71 -291v-688z" />
    <glyph glyph-name="i" unicode="i" 
d="M111 1198v297h327v-297h-327zM111 0v1075h327v-1075h-327z" />
    <glyph glyph-name="j" unicode="j" 
d="M111 1198v297h327v-297h-327zM111 -18v1093h327v-1069q0 -187 -113 -303.5t-281 -116.5q-167 0 -288 103l138 223q37 -43 96 -43t90 30.5t31 82.5z" />
    <glyph glyph-name="k" unicode="k" horiz-adv-x="1163" 
d="M438 0h-327v1495h327v-866l365 446h348l-387 -463l418 -612h-348l-281 432l-115 -119v-313z" />
    <glyph glyph-name="l" unicode="l" horiz-adv-x="694" 
d="M109 268v1227h327v-1094q0 -123 107 -122q50 0 106 28l43 -264q-128 -61 -279 -61t-227.5 73.5t-76.5 212.5z" />
    <glyph glyph-name="m" unicode="m" horiz-adv-x="1912" 
d="M805 1096q182 0 234.5 -83t62.5 -126q59 100 159.5 154.5t216.5 54.5t224 -66t108 -342v-688h-327v604q0 106 -38 154.5t-103 48.5t-127 -53.5t-91 -137.5v-616h-327v604q0 106 -38 154.5t-103 48.5t-127 -52.5t-91 -138.5v-616h-327v1075h295v-180q121 201 399 201z" />
    <glyph glyph-name="n" unicode="n" horiz-adv-x="1251" 
d="M1149 0h-328v604q0 106 -40 154.5t-105 48.5q-109 0 -166 -75t-72 -116v-616h-327v1075h295v-180q59 96 167.5 148.5t230.5 52.5t233.5 -65t111.5 -343v-688z" />
    <glyph glyph-name="o" unicode="o" horiz-adv-x="1247" 
d="M452.5 333q67.5 -77 171.5 -77t171 79t67 204t-67.5 201.5t-171.5 76.5t-171 -79t-67 -204q0 -124 67.5 -201zM624.5 -20q-137.5 0 -245 45t-181 121.5t-111.5 178t-38 212t38 212t111.5 178.5t181 123t245 46t244 -46t180 -123t112.5 -178.5t39 -212t-38 -212
t-111.5 -178t-181 -121.5t-245 -45z" />
    <glyph glyph-name="p" unicode="p" horiz-adv-x="1306" 
d="M668 256q113 0 183.5 83t70.5 202t-72.5 197.5t-185.5 78.5q-68 0 -129.5 -40t-96.5 -107v-221q33 -82 99.5 -137.5t130.5 -55.5zM397 901q125 195 350 195t367.5 -160.5t142.5 -399.5t-133 -397.5t-331 -158.5q-123 0 -213.5 51t-141.5 143v-610h-327v1511h286v-174z
" />
    <glyph glyph-name="q" unicode="q" horiz-adv-x="1306" 
d="M651 256q125 0 217 145v228q-25 80 -95 134t-132 54q-115 0 -185.5 -84.5t-70.5 -203.5q0 -118 70.5 -195.5t195.5 -77.5zM868 -225v399q-110 -194 -352 -194q-202 0 -333.5 161.5t-131.5 397.5t142.5 396.5t365.5 160.5t352 -197v176h285v-1126q0 -49 18.5 -68.5
t65.5 -21.5v-279q-86 -16 -158 -16q-122 0 -188 59.5t-66 151.5z" />
    <glyph glyph-name="r" unicode="r" horiz-adv-x="821" 
d="M438 0h-327v1075h301v-217q57 109 144 169t185 65q41 0 52 -2v-295q-119 -2 -214.5 -39t-140.5 -111v-645z" />
    <glyph glyph-name="s" unicode="s" horiz-adv-x="1058" 
d="M383 778q0 -61 72.5 -81.5t160.5 -42.5q208 -53 304 -123t96 -216q0 -147 -123 -241t-335 -94t-348 53t-185 84l129 221q221 -127 399 -127q147 0 147 65.5t-51 89t-168 54.5q-235 62 -318 127t-83 184q0 164 127 264.5t331 100.5t447 -127l-129 -207q-193 106 -333 106
t-140 -90z" />
    <glyph glyph-name="t" unicode="t" horiz-adv-x="821" 
d="M506 379q0 -100 106 -100q51 0 133 38l62 -260q-181 -77 -330 -77q-210 0 -254.5 104t-44.5 182v561h-137v248h137v342h328v-342h219v-248h-219v-448z" />
    <glyph glyph-name="u" unicode="u" horiz-adv-x="1296" 
d="M102 387v688h328v-616q0 -98 39 -150.5t111 -52.5q150 0 235 156v663h328v-706q0 -49 18.5 -68.5t65.5 -24.5v-276q-82 -16 -156 -16q-172 2 -199 137l-6 65q-144 -206 -428 -206q-164 0 -250 103t-86 304z" />
    <glyph glyph-name="v" unicode="v" horiz-adv-x="1124" 
d="M385 0l-381 1075h336l235 -813l238 813h307l-381 -1075h-354z" />
    <glyph glyph-name="w" unicode="w" horiz-adv-x="1753" 
d="M1446 1075h309l-444 -1075h-269l-165 442l-164 -442h-269l-444 1075h309l291 -772l100 293l-188 479h262l103 -323l104 323h262l-190 -479l102 -293z" />
    <glyph glyph-name="x" unicode="x" horiz-adv-x="1103" 
d="M338 1075l194 -303l21 -39l18 39l195 303h336l-373 -538l379 -537h-334l-203 301l-18 39l-18 -39l-203 -301h-336l379 537l-371 538h334z" />
    <glyph glyph-name="y" unicode="y" horiz-adv-x="1116" 
d="M249 -188q60 0 94 42t56 146l-407 1075h336l252 -794l215 794h305l-412 -1249q-45 -135 -152.5 -216t-226.5 -82t-203 30v280q83 -26 143 -26z" />
    <glyph glyph-name="z" unicode="z" horiz-adv-x="1007" 
d="M76 848v227h864v-196l-547 -652h559v-227h-905v197l549 651h-520z" />
    <glyph glyph-name="braceleft" unicode="{" horiz-adv-x="671" 
d="M475 590v-393h113v-260h-361q-12 0 -29.5 12t-17.5 49v481q0 59 -34.5 98t-77.5 50v225q39 0 75.5 45t36.5 98v459q0 37 17.5 49.5t29.5 12.5h361v-261h-113v-370q0 -79 -78 -148q78 -73 78 -147z" />
    <glyph glyph-name="bar" unicode="|" horiz-adv-x="540" 
d="M133 -266v1853h277v-1853h-277z" />
    <glyph glyph-name="braceright" unicode="}" horiz-adv-x="671" 
d="M197 885v370h-113v261h360q10 0 29 -12.5t19 -49.5v-459q0 -51 34.5 -97t75.5 -46v-225q-41 -10 -75.5 -49t-34.5 -99v-481q0 -37 -17.5 -49t-30.5 -12h-360v260h113v393q0 80 77 147q-77 68 -77 148z" />
    <glyph glyph-name="asciitilde" unicode="~" horiz-adv-x="1196" 
d="M102 455q0 20 15.5 69t78 138.5t218.5 89.5q76 0 157.5 -37t124.5 -54.5t88 -17.5q76 0 110 42t34 63h174q0 -12 -15.5 -60.5t-82 -140.5t-220.5 -92q-81 0 -161 35.5t-123 52t-104.5 16.5t-88 -39.5t-26.5 -64.5h-179z" />
    <glyph glyph-name="uni00A0" unicode="&#xa0;" horiz-adv-x="477" 
 />
    <glyph glyph-name="exclamdown" unicode="&#xa1;" horiz-adv-x="628" 
d="M479 1456v-340h-327v340h327zM479 879v-891h-327v891h327z" />
    <glyph glyph-name="cent" unicode="&#xa2;" horiz-adv-x="1241" 
d="M418 535q0 -87 40 -155.5t111 -98.5v512q-72 -23 -111.5 -97t-39.5 -161zM711 -246h-142v228q-206 15 -347.5 179.5t-141.5 372.5t128.5 364.5t360.5 193.5v229h142v-229q141 -4 261 -74t191 -207l-317 -96q-49 83 -135 92v-543q102 27 137 98l319 -98
q-60 -130 -197.5 -207t-258.5 -77v-226z" />
    <glyph glyph-name="sterling" unicode="&#xa3;" horiz-adv-x="1155" 
d="M414 33q-80 0 -246 -51l-70 233q88 63 141.5 150.5t61.5 177.5h-184v243h131q-35 76 -66.5 151t-31.5 155q0 157 128 264.5t314 107.5q129 0 246.5 -56t199.5 -159l-168 -200q-53 66 -130.5 108.5t-146.5 42.5t-111 -39t-42 -102.5t35 -129t66 -143.5h383v-243h-342
q-15 -142 -156 -291q85 29 157 29q71 0 137 -16.5t130 -16.5q65 0 147 28l80 -241q-47 -29 -113.5 -47.5t-119.5 -18.5t-101.5 10.5t-98.5 21.5t-100 21.5t-130 10.5z" />
    <glyph glyph-name="yen" unicode="&#xa5;" horiz-adv-x="1486" 
d="M1235 852v-211h-250l-78 -145v-64h330v-211h-330v-221h-334v221h-327v211h327v68l-75 141h-250v211h143l-328 602h363l313 -668l320 668h366l-331 -602h141z" />
    <glyph glyph-name="brokenbar" unicode="&#xa6;" 
d="M414 1587v-799h-277v799h277zM414 532v-798h-277v798h277z" />
    <glyph glyph-name="section" unicode="&#xa7;" horiz-adv-x="1107" 
d="M540 709q-42 0 -69 14q-27 -23 -27 -69t25 -66.5t58.5 -29.5t71.5 -11t63 -10q28 20 28 59t-12 58.5t-31.5 31.5t-42 17.5t-64.5 5.5zM1026 261q0 -228 -147.5 -334.5t-310.5 -106.5q-162 0 -281.5 71.5t-188.5 151.5l209 201q109 -113 200 -113t135 26.5t44 80.5
q0 67 -52 74t-73 10q-217 16 -325.5 118.5t-108.5 257.5q0 59 12.5 93t18.5 51q-23 25 -48.5 83t-25.5 137q0 160 128.5 281t303.5 121t270 -70.5t133.5 -118.5t65.5 -85l-250 -119q-62 103 -186 103q-63 0 -99 -30t-36 -69q0 -65 36 -84.5t105 -20.5q172 -2 308 -87.5
t136 -266.5q0 -105 -34 -159q61 -66 61 -196z" />
    <glyph glyph-name="dieresis" unicode="&#xa8;" horiz-adv-x="1040" 
d="M600 1214v265h270v-265h-270zM170 1214v265h270v-265h-270z" />
    <glyph glyph-name="copyright" unicode="&#xa9;" horiz-adv-x="1730" 
d="M1356 512q-142 -279 -496 -279q-106 0 -205.5 39t-205 141.5t-105.5 308.5t140 351.5t390 145.5q174 0 296 -76t182 -201l-318 -98q-54 98 -151 98t-150 -61.5t-53 -157.5t58.5 -154.5t121.5 -58.5q126 0 176 98zM858 100q139 0 261 46.5t262.5 175t140.5 396.5
t-190.5 450t-470.5 182t-466 -180t-186 -377t49 -311.5t136 -198.5t206 -133.5t258 -49.5zM860 -14q-335 0 -555.5 211.5t-220.5 529.5q0 158 58.5 293t162 233.5t245.5 154.5t310 56t312.5 -56t250 -154.5t165 -233.5t59.5 -294t-59.5 -294t-165 -234.5t-250 -155.5
t-312.5 -56z" />
    <glyph glyph-name="ordfeminine" unicode="&#xaa;" horiz-adv-x="917" 
d="M427 1047q-60 0 -97 -28t-37 -69t28.5 -66.5t82.5 -25.5t104 43q31 20 31 53v68q-52 25 -112 25zM324 688q-105 0 -176.5 67.5t-71.5 174.5t86.5 176.5t203.5 69.5t173 -31v31q0 127 -138 127q-103 0 -223 -82l-67 145q141 96 310 96t259 -79.5t90 -233.5v-182
q0 -35 12.5 -49.5t44.5 -16.5v-199q-62 -12 -108 -12q-121 2 -137 98l-7 33q-95 -133 -251 -133z" />
    <glyph glyph-name="guillemotleft" unicode="&#xab;" horiz-adv-x="1386" 
d="M721 600l553 395v-264l-293 -201l293 -186v-264l-553 364v156zM70 600l551 395v-264l-293 -201l293 -186v-264l-551 364v156z" />
    <glyph glyph-name="logicalnot" unicode="&#xac;" horiz-adv-x="1280" 
d="M1153 850v-649h-276v354h-762v295h1038z" />
    <glyph glyph-name="uni00AD" unicode="&#xad;" horiz-adv-x="1259" 
d="M111 416v295h1038v-295h-1038z" />
    <glyph glyph-name="registered" unicode="&#xae;" horiz-adv-x="1730" 
d="M903 770q39 0 63.5 24.5t24.5 79.5t-28.5 78t-63.5 23h-147v-205h151zM522 1176h404q121 0 206 -93.5t85 -210.5q0 -80 -41 -150.5t-107 -105.5l205 -329h-256l-178 286h-88v-286h-230v889zM860 98q139 0 259 47.5t208 130t138.5 197.5t50.5 248t-49.5 247.5
t-136.5 198.5t-206.5 133.5t-261 49.5t-260.5 -49.5t-204 -133.5t-133 -197.5t-48 -244.5t48 -244.5t133 -198.5t204 -134.5t258 -49.5zM776.5 -14q-251.5 0 -472 211.5t-220.5 529.5q0 158 58.5 293t162 233.5t245.5 154.5t310 56t312.5 -56t250 -154.5t165 -233.5
t59.5 -294t-59.5 -294t-165 -234.5t-250 -155.5t-396 -56z" />
    <glyph glyph-name="macron" unicode="&#xaf;" horiz-adv-x="876" 
d="M127 1272v198h623v-198h-623z" />
    <glyph glyph-name="degree" unicode="&#xb0;" horiz-adv-x="604" 
d="M250 1307q-21 -26 -21 -51t21 -48q24 -22 54 -22t48 22q21 17 21 47q1 31 -19 51t-52 21q-32 0 -52 -20zM76 1260q0 98 63.5 160.5t162.5 62.5t161.5 -62.5t62.5 -161.5t-62.5 -163t-161.5 -64t-162.5 65t-63.5 163z" />
    <glyph glyph-name="plusminus" unicode="&#xb1;" horiz-adv-x="974" 
d="M862 911v-260h-227v-248h-293v248h-229v260h229v248h293v-248h227zM113 33v260h749v-260h-749z" />
    <glyph glyph-name="twosuperior" unicode="&#xb2;" horiz-adv-x="876" 
d="M596 1214q0 97 -155 97t-257 -94l-121 139q39 49 141.5 95t265.5 46t253 -73.5t90 -201.5t-75 -191.5t-189 -98.5q-176 -51 -176 -139h409v-187h-723q0 171 57.5 261.5t213.5 156.5q49 20 157.5 62.5t108.5 127.5z" />
    <glyph glyph-name="threesuperior" unicode="&#xb3;" horiz-adv-x="849" 
d="M403 1321q-137 0 -229 -96l-121 153q103 119 348 119q156 0 259.5 -69.5t103.5 -172.5q0 -72 -53.5 -118.5t-145.5 -63.5q102 -14 160.5 -77.5t58.5 -140.5q0 -136 -114 -199.5t-259 -63.5q-288 0 -358 156l103 143q14 -29 76.5 -68t151.5 -39q206 0 206 90
q0 101 -303 101h-51v174h49q274 0 274 96q0 36 -47.5 56t-108.5 20z" />
    <glyph glyph-name="acute" unicode="&#xb4;" horiz-adv-x="550" 
d="M303 1171l-209 58l107 266h297z" />
    <glyph glyph-name="mu" unicode="&#xb5;" horiz-adv-x="1335" 
d="M135 -436v1511h328v-616q0 -203 158 -203q57 0 118.5 35t108.5 121v663h328v-706q0 -49 18 -68.5t66 -24.5v-276q-82 -16 -158 -16q-172 4 -197 137l-6 65q-25 -65 -117.5 -135.5t-186.5 -70.5q-93 0 -122 44t-31 54l21 -514h-328z" />
    <glyph glyph-name="paragraph" unicode="&#xb6;" horiz-adv-x="1380" 
d="M877 1210h-86v-561h86v561zM342 930q0 -121 50 -196t122 -85v561q-80 -6 -126 -82.5t-46 -197.5zM649 1454h647v-244h-143v-1374h-276v572h-86v-572h-277v572q-199 0 -320.5 140.5t-121.5 384.5q0 245 150.5 383t426.5 138z" />
    <glyph glyph-name="periodcentered" unicode="&#xb7;" horiz-adv-x="487" 
d="M111 492v339h266v-339h-266z" />
    <glyph glyph-name="cedilla" unicode="&#xb8;" horiz-adv-x="702" 
d="M289 -301q114 -1 114 65t-98 66t-174 -23l127 259l123 -37l-74 -107q27 6 81 6t109.5 -35.5t55.5 -116.5t-69.5 -137.5t-199.5 -56.5t-241 43l61 115q23 -14 76 -27.5t109 -13.5z" />
    <glyph glyph-name="onesuperior" unicode="&#xb9;" horiz-adv-x="632" 
d="M590 797v-189h-494v189h158v497q-22 -31 -83.5 -68.5t-107.5 -37.5v190q52 0 103 40t69.5 58.5t18.5 20.5h195v-700h141z" />
    <glyph glyph-name="ordmasculine" unicode="&#xba;" horiz-adv-x="903" 
d="M301 1075q0 -86 42 -137t107.5 -51t107.5 51t42 137t-42 137.5t-107.5 51.5t-107.5 -51.5t-42 -137.5zM450.5 688q-92.5 0 -164 32t-120.5 85t-74.5 122.5t-25.5 147.5t25.5 147.5t74.5 123t120.5 85t164 31.5t165 -31.5t121.5 -85t75 -123t26 -147.5t-26 -147.5
t-75 -122.5t-121.5 -85t-165 -32z" />
    <glyph glyph-name="guillemotright" unicode="&#xbb;" horiz-adv-x="1386" 
d="M664 444l-553 -364v264l295 186l-295 201v264l553 -395v-156zM1317 444l-553 -364v264l295 186l-295 201v264l553 -395v-156z" />
    <glyph glyph-name="onequarter" unicode="&#xbc;" horiz-adv-x="1988" 
d="M391 115l578 663l524 695l147 -132l-559 -647l-544 -712zM610 797v-189h-493v189h157v497q-22 -30 -82.5 -68t-107.5 -38v190q50 0 102 40t70 58.5t18 20.5h195v-700h141zM1606 369v282l-275 -282h275zM1597 2v180h-446v187l506 514h131v-514h127v-187h-127v-180h-191z
" />
    <glyph glyph-name="onehalf" unicode="&#xbd;" horiz-adv-x="2033" 
d="M313 115l578 663l524 695l148 -132l-559 -647l-545 -712zM608 797v-189h-493v189h157v497q-22 -30 -82.5 -68t-107.5 -38v190q50 0 102 40t70 58.5t18 20.5h195v-700h141zM1753 608q0 97 -142 97t-239 -97l-110 142q63 88 180 114.5t188 26.5q158 0 241 -74t83 -202
t-70 -191.5t-174 -97.5q-164 -51 -164 -140h408v-186h-699q0 171 53.5 260.5t198.5 157.5q45 20 145.5 62.5t100.5 127.5z" />
    <glyph glyph-name="threequarters" unicode="&#xbe;" horiz-adv-x="2013" 
d="M457 115l577 663l525 695l147 -132l-559 -647l-545 -712zM1624 369v282l-274 -282h274zM1616 2v180h-447v187l506 514h131v-514h127v-187h-127v-180h-190zM428 1321q-137 0 -229 -96l-121 153q103 119 348 119q156 0 259 -69.5t103 -172.5q0 -72 -53 -118.5t-145 -63.5
q102 -14 160.5 -77.5t58.5 -140.5q0 -135 -113.5 -199t-259.5 -64q-288 0 -358 156l102 143q14 -29 76.5 -68t152.5 -39q205 0 205 90q0 101 -303 101h-51v174h49q275 0 275 96q0 36 -47.5 56t-108.5 20z" />
    <glyph glyph-name="questiondown" unicode="&#xbf;" horiz-adv-x="997" 
d="M770 1036v-307h-268v307h268zM512 -172q115 0 209 147l211 -147q-53 -125 -169 -194.5t-277 -69.5t-290.5 101.5t-129.5 307.5q0 117 49 196t143 138q43 27 87 50.5t103.5 64t59.5 113.5h268q0 -107 -23.5 -160t-55 -88t-73.5 -57t-85 -45t-115 -77.5t-72 -129.5
t48.5 -112.5t111.5 -37.5z" />
    <glyph glyph-name="Agrave" unicode="&#xc0;" horiz-adv-x="1378" 
d="M401 1876h297l107 -266l-207 -58zM690 1098l-174 -541h342zM-4 0l559 1454h272l557 -1454h-356l-113 326h-452l-111 -326h-356z" />
    <glyph glyph-name="Aacute" unicode="&#xc1;" horiz-adv-x="1378" 
d="M784 1550l-209 58l107 266h297zM690 1098l-174 -541h342zM-4 0l559 1454h272l557 -1454h-356l-113 326h-452l-111 -326h-356z" />
    <glyph glyph-name="Acircumflex" unicode="&#xc2;" horiz-adv-x="1378" 
d="M348 1653l225 221h236l223 -221l-168 -74l-174 129l-174 -129zM690 1098l-174 -541h342zM-4 0l559 1454h272l557 -1454h-356l-113 326h-452l-111 -326h-356z" />
    <glyph glyph-name="Atilde" unicode="&#xc3;" horiz-adv-x="1378" 
d="M836 1583q-62 0 -98 14.5t-66.5 33t-59 32.5t-74.5 14t-65.5 -36t-19.5 -62h-177q0 23 13.5 71t68 134t179.5 86q68 0 123 -34t83.5 -49t64.5 -15q61 0 84 38.5t23 63.5h177q0 -16 -14.5 -63.5t-46.5 -98.5t-82.5 -90t-112.5 -39zM690 1098l-174 -541h342zM-4 0l559 1454
h272l557 -1454h-356l-113 326h-452l-111 -326h-356z" />
    <glyph glyph-name="Adieresis" unicode="&#xc4;" horiz-adv-x="1378" 
d="M770 1595v265h270v-265h-270zM340 1595v265h270v-265h-270zM690 1098l-174 -541h342zM-4 0l559 1454h272l557 -1454h-356l-113 326h-452l-111 -326h-356z" />
    <glyph glyph-name="Aring" unicode="&#xc5;" horiz-adv-x="1378" 
d="M690 1778q-35 0 -58.5 -19.5t-23.5 -50.5t23.5 -51.5t57.5 -20.5t58.5 19.5t24.5 51.5t-23.5 51.5t-58.5 19.5zM471 1707q0 83 60.5 125t158.5 42t157.5 -42t59.5 -125t-59.5 -125t-157.5 -42t-158.5 42t-60.5 125zM690 1098l-174 -541h342zM-4 0l559 1454h272l557 -1454
h-356l-113 326h-452l-111 -326h-356z" />
    <glyph glyph-name="AE" unicode="&#xc6;" horiz-adv-x="2000" 
d="M922 621v458l-273 -458h273zM1915 1454v-295h-635v-272h524v-293h-524v-299h653v-295h-987v326h-440l-187 -326h-356l895 1454h1057z" />
    <glyph glyph-name="Ccedilla" unicode="&#xc7;" horiz-adv-x="1359" 
d="M764 -301q115 -1 115 65t-99 66t-174 -23l90 183q-141 10 -259 78.5t-249 232.5t-131 438q0 131 47.5 261t137.5 232.5t220 166t310 63.5t323.5 -88t213.5 -229l-258 -180q-42 103 -123.5 150.5t-174.5 47.5q-170 0 -262 -130.5t-92 -306.5t98.5 -307.5t256.5 -131.5
q91 0 151 34.5t92.5 72.5t53.5 93l276 -161q-54 -134 -194 -224.5t-302 -107.5l-49 -72q28 6 82 6t109 -35.5t55 -116.5t-69.5 -137.5t-199.5 -56.5t-241 43l62 115q23 -14 76 -27.5t108 -13.5z" />
    <glyph glyph-name="Egrave" unicode="&#xc8;" horiz-adv-x="1230" 
d="M369 1876h297l106 -266l-207 -58zM1161 295v-295h-1022v1454h1004v-295h-668v-282h574v-273h-574v-309h686z" />
    <glyph glyph-name="Eacute" unicode="&#xc9;" horiz-adv-x="1230" 
d="M1161 295v-295h-1022v1454h1004v-295h-668v-282h574v-273h-574v-309h686zM752 1550l-209 58l106 266h297z" />
    <glyph glyph-name="Ecircumflex" unicode="&#xca;" horiz-adv-x="1230" 
d="M1161 295v-295h-1022v1454h1004v-295h-668v-282h574v-273h-574v-309h686zM315 1653l226 221h235l223 -221l-168 -74l-174 129l-174 -129z" />
    <glyph glyph-name="Edieresis" unicode="&#xcb;" horiz-adv-x="1230" 
d="M1161 295v-295h-1022v1454h1004v-295h-668v-282h574v-273h-574v-309h686zM737 1595v265h271v-265h-271zM307 1595v265h271v-265h-271z" />
    <glyph glyph-name="Igrave" unicode="&#xcc;" horiz-adv-x="614" 
d="M16 1876h297l107 -266l-207 -58zM139 0v1454h336v-1454h-336z" />
    <glyph glyph-name="Iacute" unicode="&#xcd;" horiz-adv-x="614" 
d="M399 1550l-209 58l107 266h297zM139 0v1454h336v-1454h-336z" />
    <glyph glyph-name="Icircumflex" unicode="&#xce;" horiz-adv-x="614" 
d="M-35 1653l225 221h236l223 -221l-168 -74l-174 129l-174 -129zM139 0v1454h336v-1454h-336z" />
    <glyph glyph-name="Idieresis" unicode="&#xcf;" horiz-adv-x="614" 
d="M387 1595v265h270v-265h-270zM-43 1595v265h270v-265h-270zM139 0v1454h336v-1454h-336z" />
    <glyph glyph-name="Eth" unicode="&#xd0;" horiz-adv-x="1478" 
d="M972.5 1041q-100.5 118 -282.5 118h-207v-307h262v-242h-262v-315h207q183 0 283 122t100 314t-100.5 310zM147 0v610h-88v242h88v602h543q344 0 534.5 -205t190.5 -529q0 -323 -198.5 -521.5t-526.5 -198.5h-543z" />
    <glyph glyph-name="Ntilde" unicode="&#xd1;" horiz-adv-x="1554" 
d="M918 1581q-62 0 -98 14.5t-66.5 33t-59 32.5t-74.5 14t-65.5 -36t-19.5 -62h-177q0 23 13.5 71t67 134t179.5 86q69 0 124 -34t83.5 -49.5t64.5 -15.5q61 0 84 39t23 64h177q0 -16 -14.5 -63.5t-46.5 -98.5t-82.5 -90t-112.5 -39zM475 0h-336v1454h262l678 -854v854h336
v-1454h-270l-670 831v-831z" />
    <glyph glyph-name="Ograve" unicode="&#xd2;" horiz-adv-x="1503" 
d="M467 1876h297l106 -266l-206 -58zM493.5 417.5q94.5 -130.5 259.5 -130.5t258 131.5t93 310.5t-95 306.5t-258 127.5q-164 0 -258 -130t-94 -308q0 -177 94.5 -307.5zM748 -12q-154 0 -281 63.5t-218 167t-141.5 236.5t-50.5 275t52.5 275.5t145.5 234.5t221 161.5
t282 60.5t280.5 -63.5t218 -168t140.5 -237.5t49 -273t-52.5 -273.5t-144.5 -234.5t-219.5 -162.5t-281.5 -61.5z" />
    <glyph glyph-name="Oacute" unicode="&#xd3;" horiz-adv-x="1503" 
d="M493.5 417.5q94.5 -130.5 259.5 -130.5t258 131.5t93 310.5t-95 306.5t-258 127.5q-164 0 -258 -130t-94 -308q0 -177 94.5 -307.5zM748 -12q-154 0 -281 63.5t-218 167t-141.5 236.5t-50.5 275t52.5 275.5t145.5 234.5t221 161.5t282 60.5t280.5 -63.5t218 -168
t140.5 -237.5t49 -273t-52.5 -273.5t-144.5 -234.5t-219.5 -162.5t-281.5 -61.5zM850 1550l-209 58l107 266h296z" />
    <glyph glyph-name="Ocircumflex" unicode="&#xd4;" horiz-adv-x="1503" 
d="M493.5 417.5q94.5 -130.5 259.5 -130.5t258 131.5t93 310.5t-95 306.5t-258 127.5q-164 0 -258 -130t-94 -308q0 -177 94.5 -307.5zM748 -12q-154 0 -281 63.5t-218 167t-141.5 236.5t-50.5 275t52.5 275.5t145.5 234.5t221 161.5t282 60.5t280.5 -63.5t218 -168
t140.5 -237.5t49 -273t-52.5 -273.5t-144.5 -234.5t-219.5 -162.5t-281.5 -61.5zM414 1653l225 221h235l224 -221l-168 -74l-174 129l-174 -129z" />
    <glyph glyph-name="Otilde" unicode="&#xd5;" horiz-adv-x="1503" 
d="M902 1583q-62 0 -98 14.5t-66.5 33t-59.5 32.5t-74 14t-65.5 -36t-20.5 -62h-176q0 23 13.5 71t67 134t179.5 86q70 0 124 -34t83 -49t65 -15q60 0 83.5 38.5t23.5 63.5h176q0 -16 -14.5 -63.5t-46 -98.5t-82 -90t-112.5 -39zM493.5 417.5q94.5 -130.5 259.5 -130.5
t258 131.5t93 310.5t-95 306.5t-258 127.5q-164 0 -258 -130t-94 -308q0 -177 94.5 -307.5zM748 -12q-154 0 -281 63.5t-218 167t-141.5 236.5t-50.5 275t52.5 275.5t145.5 234.5t221 161.5t282 60.5t280.5 -63.5t218 -168t140.5 -237.5t49 -273t-52.5 -273.5t-144.5 -234.5
t-219.5 -162.5t-281.5 -61.5z" />
    <glyph glyph-name="Odieresis" unicode="&#xd6;" horiz-adv-x="1503" 
d="M493.5 417.5q94.5 -130.5 259.5 -130.5t258 131.5t93 310.5t-95 306.5t-258 127.5q-164 0 -258 -130t-94 -308q0 -177 94.5 -307.5zM748 -12q-154 0 -281 63.5t-218 167t-141.5 236.5t-50.5 275t52.5 275.5t145.5 234.5t221 161.5t282 60.5t280.5 -63.5t218 -168
t140.5 -237.5t49 -273t-52.5 -273.5t-144.5 -234.5t-219.5 -162.5t-281.5 -61.5zM836 1595v265h270v-265h-270zM406 1595v265h270v-265h-270z" />
    <glyph glyph-name="multiply" unicode="&#xd7;" horiz-adv-x="991" 
d="M895 371l-205 -203l-196 194l-195 -194l-203 203l195 194l-185 187l205 202l185 -184l184 184l203 -202l-185 -185z" />
    <glyph glyph-name="Oslash" unicode="&#xd8;" horiz-adv-x="1507" 
d="M739 1163q-73 0 -138.5 -38t-132.5 -130t-67 -270q0 -106 33 -193l432 611q-54 20 -127 20zM1106 738q0 91 -35 184l-436 -613q57 -23 133 -23t141.5 39.5t109.5 101.5t65.5 141t21.5 170zM1448 723q0 -143 -52.5 -276.5t-144.5 -234.5t-220.5 -162.5t-284.5 -61.5
t-289 69l-41 -57h-361l172 244q-168 214 -168 485q0 143 52.5 276.5t145.5 234.5t221 161.5t279 60.5t290 -67l40 59h363l-174 -244q172 -213 172 -487z" />
    <glyph glyph-name="Ugrave" unicode="&#xd9;" horiz-adv-x="1525" 
d="M473 1876h297l107 -266l-207 -58zM799.5 287q123.5 0 197.5 120.5t74 303.5v743h336v-743q0 -319 -161 -521t-487 -202t-484 204.5t-158 518.5v743h336v-743q0 -292 111.5 -358t235 -66z" />
    <glyph glyph-name="Uacute" unicode="&#xda;" horiz-adv-x="1525" 
d="M799.5 287q123.5 0 197.5 120.5t74 303.5v743h336v-743q0 -319 -161 -521t-487 -202t-484 204.5t-158 518.5v743h336v-743q0 -292 111.5 -358t235 -66zM856 1550l-209 58l107 266h297z" />
    <glyph glyph-name="Ucircumflex" unicode="&#xdb;" horiz-adv-x="1525" 
d="M799.5 287q123.5 0 197.5 120.5t74 303.5v743h336v-743q0 -319 -161 -521t-487 -202t-484 204.5t-158 518.5v743h336v-743q0 -292 111.5 -358t235 -66zM420 1653l225 221h236l223 -221l-168 -74l-174 129l-174 -129z" />
    <glyph glyph-name="Udieresis" unicode="&#xdc;" horiz-adv-x="1525" 
d="M799.5 287q123.5 0 197.5 120.5t74 303.5v743h336v-743q0 -319 -161 -521t-487 -202t-484 204.5t-158 518.5v743h336v-743q0 -292 111.5 -358t235 -66zM842 1595v265h270v-265h-270zM412 1595v265h270v-265h-270z" />
    <glyph glyph-name="Yacute" unicode="&#xdd;" horiz-adv-x="1327" 
d="M756 1550l-209 58l106 266h297zM829 0h-335v500l-510 954h364l314 -668l319 668h365l-517 -958v-496z" />
    <glyph glyph-name="Thorn" unicode="&#xde;" horiz-adv-x="1239" 
d="M721 512q61 0 103 56.5t42 144.5t-48 141t-107 53h-236v-395h246zM727 1200q104 0 191.5 -43t149.5 -111.5t98 -156.5t36 -181q0 -196 -130 -343.5t-333 -147.5h-264v-217h-336v1454h336v-254h252z" />
    <glyph glyph-name="germandbls" unicode="&#xdf;" horiz-adv-x="1146" 
d="M512 289q102 0 172 45t70 134t-58.5 137t-132.5 48h-45v293h41q59 0 90 33t31 79q0 74 -41 101t-84 27q-74 0 -103.5 -52t-29.5 -116v-1018h-311v1075q0 166 133.5 276.5t323.5 110.5t306.5 -90t116.5 -248q0 -157 -64.5 -220.5t-97.5 -78.5q123 -41 196 -142t73 -237
q0 -243 -171 -350.5t-415 -107.5v301z" />
    <glyph glyph-name="agrave" unicode="&#xe0;" horiz-adv-x="1208" 
d="M276 1497h297l107 -266l-207 -57zM354 354q0 -62 45 -100.5t107 -38.5q124 0 194 68q47 37 48 77v103q-94 35 -186 35q-91 0 -149.5 -41t-58.5 -103zM434 -20q-178 0 -283.5 98t-105.5 250t130 252t331 100q144 0 242 -45v49q0 186 -216 186q-159 0 -335 -118l-97 204
q212 140 460 140t381.5 -115t133.5 -336v-276q0 -49 18.5 -68.5t65.5 -24.5v-276q-75 -16 -162 -15q-168 2 -192 136l-6 49q-72 -92 -170.5 -141t-194.5 -49z" />
    <glyph glyph-name="aacute" unicode="&#xe1;" horiz-adv-x="1208" 
d="M659 1171l-208 58l106 266h297zM354 354q0 -62 45 -100.5t107 -38.5q124 0 194 68q47 37 48 77v103q-94 35 -186 35q-91 0 -149.5 -41t-58.5 -103zM434 -20q-178 0 -283.5 98t-105.5 250t130 252t331 100q144 0 242 -45v49q0 186 -216 186q-159 0 -335 -118l-97 204
q212 140 460 140t381.5 -115t133.5 -336v-276q0 -49 18.5 -68.5t65.5 -24.5v-276q-75 -16 -162 -15q-168 2 -192 136l-6 49q-72 -92 -170.5 -141t-194.5 -49z" />
    <glyph glyph-name="acircumflex" unicode="&#xe2;" horiz-adv-x="1208" 
d="M223 1274l226 221h235l223 -221l-168 -74l-174 129l-174 -129zM354 354q0 -62 45 -100.5t107 -38.5q124 0 194 68q47 37 48 77v103q-94 35 -186 35q-91 0 -149.5 -41t-58.5 -103zM434 -20q-178 0 -283.5 98t-105.5 250t130 252t331 100q144 0 242 -45v49q0 186 -216 186
q-159 0 -335 -118l-97 204q212 140 460 140t381.5 -115t133.5 -336v-276q0 -49 18.5 -68.5t65.5 -24.5v-276q-75 -16 -162 -15q-168 2 -192 136l-6 49q-72 -92 -170.5 -141t-194.5 -49z" />
    <glyph glyph-name="atilde" unicode="&#xe3;" horiz-adv-x="1208" 
d="M708 1204q-62 0 -97.5 14.5t-66 33t-59 32.5t-74.5 14t-65.5 -36t-19.5 -62h-176q0 23 13 71t67.5 134t179.5 86q68 0 123 -34t83.5 -49t64.5 -15q61 0 84 38.5t23 63.5h177q0 -16 -14.5 -63.5t-46.5 -98.5t-83 -90t-113 -39zM354 354q0 -62 45 -100.5t107 -38.5
q124 0 194 68q47 37 48 77v103q-94 35 -186 35q-91 0 -149.5 -41t-58.5 -103zM434 -20q-178 0 -283.5 98t-105.5 250t130 252t331 100q144 0 242 -45v49q0 186 -216 186q-159 0 -335 -118l-97 204q212 140 460 140t381.5 -115t133.5 -336v-276q0 -49 18.5 -68.5t65.5 -24.5
v-276q-75 -16 -162 -15q-168 2 -192 136l-6 49q-72 -92 -170.5 -141t-194.5 -49z" />
    <glyph glyph-name="adieresis" unicode="&#xe4;" horiz-adv-x="1208" 
d="M645 1217v264h270v-264h-270zM215 1217v264h270v-264h-270zM354 354q0 -62 45 -100.5t107 -38.5q124 0 194 68q47 37 48 77v103q-94 35 -186 35q-91 0 -149.5 -41t-58.5 -103zM434 -20q-178 0 -283.5 98t-105.5 250t130 252t331 100q144 0 242 -45v49q0 186 -216 186
q-159 0 -335 -118l-97 204q212 140 460 140t381.5 -115t133.5 -336v-276q0 -49 18.5 -68.5t65.5 -24.5v-276q-75 -16 -162 -15q-168 2 -192 136l-6 49q-72 -92 -170.5 -141t-194.5 -49z" />
    <glyph glyph-name="aring" unicode="&#xe5;" horiz-adv-x="1208" 
d="M565 1399q-35 0 -58.5 -19.5t-23.5 -50.5t23.5 -51.5t57.5 -20.5t58.5 19.5t24.5 51.5t-23.5 51.5t-58.5 19.5zM346 1328q0 83 60.5 125t159 42t157.5 -42t59 -125t-59 -125t-157.5 -42t-159 42t-60.5 125zM354 354q0 -62 45 -100.5t107 -38.5q124 0 194 68q47 37 48 77
v103q-94 35 -186 35q-91 0 -149.5 -41t-58.5 -103zM434 -20q-178 0 -283.5 98t-105.5 250t130 252t331 100q144 0 242 -45v49q0 186 -216 186q-159 0 -335 -118l-97 204q212 140 460 140t381.5 -115t133.5 -336v-276q0 -49 18.5 -68.5t65.5 -24.5v-276q-75 -16 -162 -15
q-168 2 -192 136l-6 49q-72 -92 -170.5 -141t-194.5 -49z" />
    <glyph glyph-name="ae" unicode="&#xe6;" horiz-adv-x="1925" 
d="M1306.5 860q-98.5 0 -161 -61.5t-72.5 -163.5h469q-10 102 -73.5 163.5t-162 61.5zM356 354q0 -62 45 -100.5t105 -38.5q123 0 194 68q47 37 50 75q-4 4 -5.5 19.5t-4.5 43t-3 46.5q-91 31 -178 31q-88 0 -145.5 -41t-57.5 -103zM1315 -20q-308 0 -469 215
q-104 -160 -240 -187.5t-202 -27.5q-147 0 -252 98t-105 250t130 252t329 100q124 0 231 -41l8 61q-8 170 -213 170q-161 0 -333 -118l-99 204q218 140 464 140t378 -131q155 131 371 131q266 0 420.5 -162t154.5 -397q0 -59 -8 -101h-801q8 -105 79.5 -163t155.5 -58
q85 0 150.5 35t87.5 94l279 -78q-63 -127 -196.5 -206.5t-319.5 -79.5z" />
    <glyph glyph-name="ccedilla" unicode="&#xe7;" horiz-adv-x="1171" 
d="M647 -301q115 -1 115 65t-99 66t-174 -23l86 175q-237 15 -380.5 177t-143.5 387t155.5 387.5t422.5 162.5q186 0 313 -79t191 -206l-320 -96q-63 102 -175 102t-181.5 -75.5t-69.5 -201.5t69 -205t171 -79q61 0 112.5 29.5t75.5 76.5l320 -98q-53 -111 -163 -187.5
t-265 -92.5l-41 -62q27 6 81 6t109 -35.5t55 -116.5t-69.5 -137.5t-199.5 -56.5t-241 43l62 115q23 -14 76 -27.5t108 -13.5z" />
    <glyph glyph-name="egrave" unicode="&#xe8;" horiz-adv-x="1236" 
d="M334 1497h297l106 -266l-207 -57zM622 860q-95 0 -158 -60.5t-73 -160.5h463q-10 102 -73.5 161.5t-158.5 59.5zM1200 564q0 -86 -8 -128h-795q8 -109 79 -165t152 -56t147.5 35t88.5 94l279 -78q-63 -127 -197 -206.5t-294 -79.5q-290 0 -446.5 159t-156.5 394t155 399
t421 164t382.5 -122t154.5 -223t38 -187z" />
    <glyph glyph-name="eacute" unicode="&#xe9;" horiz-adv-x="1236" 
d="M622 860q-95 0 -158 -60.5t-73 -160.5h463q-10 102 -73.5 161.5t-158.5 59.5zM1200 564q0 -86 -8 -128h-795q8 -109 79 -165t152 -56t147.5 35t88.5 94l279 -78q-63 -127 -197 -206.5t-294 -79.5q-290 0 -446.5 159t-156.5 394t155 399t421 164t382.5 -122t154.5 -223
t38 -187zM717 1171l-209 58l106 266h297z" />
    <glyph glyph-name="ecircumflex" unicode="&#xea;" horiz-adv-x="1236" 
d="M622 860q-95 0 -158 -60.5t-73 -160.5h463q-10 102 -73.5 161.5t-158.5 59.5zM1200 564q0 -86 -8 -128h-795q8 -109 79 -165t152 -56t147.5 35t88.5 94l279 -78q-63 -127 -197 -206.5t-294 -79.5q-290 0 -446.5 159t-156.5 394t155 399t421 164t382.5 -122t154.5 -223
t38 -187zM281 1274l225 221h235l224 -221l-168 -74l-174 129l-174 -129z" />
    <glyph glyph-name="edieresis" unicode="&#xeb;" horiz-adv-x="1236" 
d="M622 860q-95 0 -158 -60.5t-73 -160.5h463q-10 102 -73.5 161.5t-158.5 59.5zM1200 564q0 -86 -8 -128h-795q8 -109 79 -165t152 -56t147.5 35t88.5 94l279 -78q-63 -127 -197 -206.5t-294 -79.5q-290 0 -446.5 159t-156.5 394t155 399t421 164t382.5 -122t154.5 -223
t38 -187zM705 1217v264h270v-264h-270zM274 1217v264h271v-264h-271z" />
    <glyph glyph-name="igrave" unicode="&#xec;" 
d="M-14 1497h297l106 -266l-207 -57zM111 0v1075h327v-1075h-327z" />
    <glyph glyph-name="iacute" unicode="&#xed;" 
d="M111 0v1075h327v-1075h-327zM369 1171l-209 58l106 266h297z" />
    <glyph glyph-name="icircumflex" unicode="&#xee;" 
d="M111 0v1075h327v-1075h-327zM-68 1274l226 221h235l223 -221l-167 -74l-175 129l-174 -129z" />
    <glyph glyph-name="idieresis" unicode="&#xef;" 
d="M111 0v1075h327v-1075h-327zM354 1217v264h271v-264h-271zM-76 1217v264h271v-264h-271z" />
    <glyph glyph-name="eth" unicode="&#xf0;" horiz-adv-x="1263" 
d="M391 479.5q0 -98.5 66.5 -161t169.5 -62.5t172 63.5t69 162.5t-66.5 161t-171 62t-172 -63.5t-67.5 -162zM1204 610q0 -298 -156.5 -464t-412.5 -166t-418 141.5t-162 350.5t141 352t349 143q96 0 181 -36t142 -95q-41 172 -153 315l-176 -94l-90 125l157 84
q-137 121 -344 229h408q98 -49 182 -121l158 84l90 -125l-135 -73q117 -141 178 -315.5t61 -334.5z" />
    <glyph glyph-name="ntilde" unicode="&#xf1;" horiz-adv-x="1251" 
d="M808 1204q-62 0 -98 14.5t-67 33t-59.5 32.5t-73.5 14t-65.5 -36t-20.5 -62h-176q0 23 13 71t67.5 134t179.5 86q70 0 124 -34t82.5 -49t64.5 -15q60 0 84 38.5t24 63.5h176q0 -16 -14.5 -63.5t-46 -98.5t-82 -90t-112.5 -39zM1149 0h-328v604q0 106 -40 154.5t-105 48.5
q-109 0 -166 -75t-72 -116v-616h-327v1075h295v-180q59 96 167.5 148.5t230.5 52.5t233.5 -65t111.5 -343v-688z" />
    <glyph glyph-name="ograve" unicode="&#xf2;" horiz-adv-x="1247" 
d="M336 1497h297l106 -266l-207 -57zM452.5 333q67.5 -77 171.5 -77t171 79t67 204t-67.5 201.5t-171.5 76.5t-171 -79t-67 -204q0 -124 67.5 -201zM624.5 -20q-137.5 0 -245 45t-181 121.5t-111.5 178t-38 212t38 212t111.5 178.5t181 123t245 46t244 -46t180 -123
t112.5 -178.5t39 -212t-38 -212t-111.5 -178t-181 -121.5t-245 -45z" />
    <glyph glyph-name="oacute" unicode="&#xf3;" horiz-adv-x="1247" 
d="M452.5 333q67.5 -77 171.5 -77t171 79t67 204t-67.5 201.5t-171.5 76.5t-171 -79t-67 -204q0 -124 67.5 -201zM624.5 -20q-137.5 0 -245 45t-181 121.5t-111.5 178t-38 212t38 212t111.5 178.5t181 123t245 46t244 -46t180 -123t112.5 -178.5t39 -212t-38 -212
t-111.5 -178t-181 -121.5t-245 -45zM717 1171l-209 58l106 266h297z" />
    <glyph glyph-name="ocircumflex" unicode="&#xf4;" horiz-adv-x="1247" 
d="M452.5 333q67.5 -77 171.5 -77t171 79t67 204t-67.5 201.5t-171.5 76.5t-171 -79t-67 -204q0 -124 67.5 -201zM624.5 -20q-137.5 0 -245 45t-181 121.5t-111.5 178t-38 212t38 212t111.5 178.5t181 123t245 46t244 -46t180 -123t112.5 -178.5t39 -212t-38 -212
t-111.5 -178t-181 -121.5t-245 -45zM281 1274l225 221h235l224 -221l-168 -74l-174 129l-174 -129z" />
    <glyph glyph-name="otilde" unicode="&#xf5;" horiz-adv-x="1247" 
d="M768 1204q-62 0 -97.5 14.5t-66.5 33t-59.5 32.5t-73.5 14t-65.5 -36t-20.5 -62h-176q0 23 13.5 71t67 134t179.5 86q70 0 124 -34t82.5 -49t64.5 -15q60 0 84 38.5t24 63.5h176q0 -16 -14.5 -63.5t-46 -98.5t-82.5 -90t-113 -39zM452.5 333q67.5 -77 171.5 -77t171 79
t67 204t-67.5 201.5t-171.5 76.5t-171 -79t-67 -204q0 -124 67.5 -201zM624.5 -20q-137.5 0 -245 45t-181 121.5t-111.5 178t-38 212t38 212t111.5 178.5t181 123t245 46t244 -46t180 -123t112.5 -178.5t39 -212t-38 -212t-111.5 -178t-181 -121.5t-245 -45z" />
    <glyph glyph-name="odieresis" unicode="&#xf6;" horiz-adv-x="1247" 
d="M452.5 333q67.5 -77 171.5 -77t171 79t67 204t-67.5 201.5t-171.5 76.5t-171 -79t-67 -204q0 -124 67.5 -201zM624.5 -20q-137.5 0 -245 45t-181 121.5t-111.5 178t-38 212t38 212t111.5 178.5t181 123t245 46t244 -46t180 -123t112.5 -178.5t39 -212t-38 -212
t-111.5 -178t-181 -121.5t-245 -45zM705 1217v264h270v-264h-270zM274 1217v264h271v-264h-271z" />
    <glyph glyph-name="divide" unicode="&#xf7;" horiz-adv-x="1019" 
d="M96 492v260h828v-260h-828zM373 78v293h276v-293h-276zM373 872v293h276v-293h-276z" />
    <glyph glyph-name="oslash" unicode="&#xf8;" horiz-adv-x="1247" 
d="M385 524q0 -74 33 -139l323 399q-55 33 -111 33t-100.5 -20.5t-76 -57.5t-50 -89t-18.5 -126zM612 256q115 0 182.5 79t67.5 186q0 106 -39 173l-325 -401q50 -37 114 -37zM201 143q-152 160 -152 394t155.5 396.5t420.5 162.5q166 0 305 -76l55 65h180l-127 -147
q162 -162 162 -399t-154.5 -398t-420.5 -161q-184 0 -318 81l-61 -71h-178z" />
    <glyph glyph-name="ugrave" unicode="&#xf9;" horiz-adv-x="1296" 
d="M334 1497h297l106 -266l-207 -57zM102 387v688h328v-616q0 -98 39 -150.5t111 -52.5q150 0 235 156v663h328v-706q0 -49 18.5 -68.5t65.5 -24.5v-276q-82 -16 -156 -16q-172 2 -199 137l-6 65q-144 -206 -428 -206q-164 0 -250 103t-86 304z" />
    <glyph glyph-name="uacute" unicode="&#xfa;" horiz-adv-x="1296" 
d="M102 387v688h328v-616q0 -98 39 -150.5t111 -52.5q150 0 235 156v663h328v-706q0 -49 18.5 -68.5t65.5 -24.5v-276q-82 -16 -156 -16q-172 2 -199 137l-6 65q-144 -206 -428 -206q-164 0 -250 103t-86 304zM717 1171l-209 58l106 266h297z" />
    <glyph glyph-name="ucircumflex" unicode="&#xfb;" horiz-adv-x="1296" 
d="M102 387v688h328v-616q0 -98 39 -150.5t111 -52.5q150 0 235 156v663h328v-706q0 -49 18.5 -68.5t65.5 -24.5v-276q-82 -16 -156 -16q-172 2 -199 137l-6 65q-144 -206 -428 -206q-164 0 -250 103t-86 304zM281 1274l225 221h235l224 -221l-168 -74l-174 129l-174 -129z
" />
    <glyph glyph-name="udieresis" unicode="&#xfc;" horiz-adv-x="1296" 
d="M102 387v688h328v-616q0 -98 39 -150.5t111 -52.5q150 0 235 156v663h328v-706q0 -49 18.5 -68.5t65.5 -24.5v-276q-82 -16 -156 -16q-172 2 -199 137l-6 65q-144 -206 -428 -206q-164 0 -250 103t-86 304zM702 1217v264h271v-264h-271zM272 1217v264h271v-264h-271z" />
    <glyph glyph-name="yacute" unicode="&#xfd;" horiz-adv-x="1116" 
d="M674 1171l-209 58l106 266h297zM249 -188q60 0 94 42t56 146l-407 1075h336l252 -794l215 794h305l-412 -1249q-45 -135 -152.5 -216t-226.5 -82t-203 30v280q83 -26 143 -26z" />
    <glyph glyph-name="thorn" unicode="&#xfe;" horiz-adv-x="1228" 
d="M446 362q0 -41 57.5 -82.5t114.5 -41.5q103 0 164.5 83.5t61.5 206.5t-58 205t-163 82q-106 0 -177 -135v-318zM1182 518q0 -110 -44 -214.5t-163 -231.5t-338 -127q-86 0 -132 25.5t-59 45.5v-452h-335v1890h335v-424q14 20 62 49t156 29t206.5 -52t167 -135t106.5 -188
t38 -215z" />
    <glyph glyph-name="ydieresis" unicode="&#xff;" horiz-adv-x="1116" 
d="M659 1217v264h271v-264h-271zM229 1217v264h271v-264h-271zM249 -188q60 0 94 42t56 146l-407 1075h336l252 -794l215 794h305l-412 -1249q-45 -135 -152.5 -216t-226.5 -82t-203 30v280q83 -26 143 -26z" />
    <glyph glyph-name="Amacron" unicode="&#x100;" horiz-adv-x="1378" 
d="M381 1651v198h623v-198h-623zM690 1098l-174 -541h342zM-4 0l559 1454h272l557 -1454h-356l-113 326h-452l-111 -326h-356z" />
    <glyph glyph-name="amacron" unicode="&#x101;" horiz-adv-x="1208" 
d="M256 1272v198h623v-198h-623zM354 354q0 -62 45 -100.5t107 -38.5q124 0 194 68q47 37 48 77v103q-94 35 -186 35q-91 0 -149.5 -41t-58.5 -103zM434 -20q-178 0 -283.5 98t-105.5 250t130 252t331 100q144 0 242 -45v49q0 186 -216 186q-159 0 -335 -118l-97 204
q212 140 460 140t381.5 -115t133.5 -336v-276q0 -49 18.5 -68.5t65.5 -24.5v-276q-75 -16 -162 -15q-168 2 -192 136l-6 49q-72 -92 -170.5 -141t-194.5 -49z" />
    <glyph glyph-name="Abreve" unicode="&#x102;" horiz-adv-x="1378" 
d="M689 1716q48 0 84 44t42 114h170q0 -132 -82.5 -216.5t-211 -84.5t-212.5 84t-84 217h174q0 -66 36 -112t84 -46zM690 1098l-174 -541h342zM-4 0l559 1454h272l557 -1454h-356l-113 326h-452l-111 -326h-356z" />
    <glyph glyph-name="abreve" unicode="&#x103;" horiz-adv-x="1208" 
d="M562 1337q48 0 84 44t42 114h170q0 -132 -82.5 -216.5t-211 -84.5t-212.5 84t-84 217h174q0 -66 36 -112t84 -46zM354 354q0 -62 45 -100.5t107 -38.5q124 0 194 68q47 37 48 77v103q-94 35 -186 35q-91 0 -149.5 -41t-58.5 -103zM434 -20q-178 0 -283.5 98t-105.5 250
t130 252t331 100q144 0 242 -45v49q0 186 -216 186q-159 0 -335 -118l-97 204q212 140 460 140t381.5 -115t133.5 -336v-276q0 -49 18.5 -68.5t65.5 -24.5v-276q-75 -16 -162 -15q-168 2 -192 136l-6 49q-72 -92 -170.5 -141t-194.5 -49z" />
    <glyph glyph-name="Aogonek" unicode="&#x104;" horiz-adv-x="1378" 
d="M690 1098l-174 -541h342zM1044 -229q0 124 173 229h-189l-113 326h-452l-111 -326h-356l559 1454h272l557 -1454q-168 -98 -167 -182q0 -76 133 -80l-64 -158q-123 16 -182.5 69.5t-59.5 121.5z" />
    <glyph glyph-name="aogonek" unicode="&#x105;" horiz-adv-x="1208" 
d="M354 354q0 -62 45 -100.5t107 -38.5q124 0 194 68q47 37 48 77v103q-94 35 -186 35q-91 0 -149.5 -41t-58.5 -103zM991 -182q0 -76 133 -80l-63 -158q-123 16 -182.5 69.5t-59.5 121.5q0 112 150 215q-144 16 -164 135l-6 49q-72 -92 -171.5 -141t-194.5 -49
q-177 0 -282.5 98t-105.5 250t130 252t331 100q144 0 242 -45v49q0 186 -216 186q-159 0 -335 -118l-97 204q212 140 460 140t381.5 -115t133.5 -336v-276q0 -49 18.5 -68.5t65.5 -24.5v-276q-168 -98 -168 -182z" />
    <glyph glyph-name="Cacute" unicode="&#x106;" horiz-adv-x="1357" 
d="M55 735q0 135 47.5 265t137.5 232.5t220 166t310 63.5t323.5 -88t213.5 -229l-258 -180q-42 104 -124 151t-175 47q-169 0 -261 -130.5t-92 -306.5t98.5 -307.5t256.5 -131.5q91 0 151 34.5t92.5 72.5t53.5 93l276 -161q-65 -156 -232.5 -247t-334.5 -91t-292.5 64.5
t-216.5 171t-142.5 241.5t-51.5 270zM848 1550l-209 58l106 266h297z" />
    <glyph glyph-name="cacute" unicode="&#x107;" horiz-adv-x="1167" 
d="M204.5 933q155.5 163 422.5 163q186 0 313 -79t190 -206l-319 -96q-63 102 -175 102t-181.5 -75.5t-69.5 -201.5t69 -205t171 -79q61 0 112 29.5t76 76.5l320 -98q-59 -125 -190 -204.5t-291 -79.5t-268 46t-221.5 162.5t-113.5 349t155.5 395.5zM719 1171l-209 58
l106 266h297z" />
    <glyph glyph-name="Ccircumflex" unicode="&#x108;" horiz-adv-x="1357" 
d="M55 735q0 135 47.5 265t137.5 232.5t220 166t310 63.5t323.5 -88t213.5 -229l-258 -180q-42 104 -124 151t-175 47q-169 0 -261 -130.5t-92 -306.5t98.5 -307.5t256.5 -131.5q91 0 151 34.5t92.5 72.5t53.5 93l276 -161q-65 -156 -232.5 -247t-334.5 -91t-292.5 64.5
t-216.5 171t-142.5 241.5t-51.5 270zM412 1653l225 221h235l224 -221l-168 -74l-174 129l-174 -129z" />
    <glyph glyph-name="ccircumflex" unicode="&#x109;" horiz-adv-x="1167" 
d="M204.5 933q155.5 163 422.5 163q186 0 313 -79t190 -206l-319 -96q-63 102 -175 102t-181.5 -75.5t-69.5 -201.5t69 -205t171 -79q61 0 112 29.5t76 76.5l320 -98q-59 -125 -190 -204.5t-291 -79.5t-268 46t-221.5 162.5t-113.5 349t155.5 395.5zM283 1274l225 221h235
l224 -221l-168 -74l-174 129l-174 -129z" />
    <glyph glyph-name="Cdotaccent" unicode="&#x10a;" horiz-adv-x="1357" 
d="M608 1593v281h295v-281h-295zM55 735q0 135 47.5 265t137.5 232.5t220 166t310 63.5t323.5 -88t213.5 -229l-258 -180q-42 104 -124 151t-175 47q-169 0 -261 -130.5t-92 -306.5t98.5 -307.5t256.5 -131.5q91 0 151 34.5t92.5 72.5t53.5 93l276 -161
q-65 -156 -232.5 -247t-334.5 -91t-292.5 64.5t-216.5 171t-142.5 241.5t-51.5 270z" />
    <glyph glyph-name="cdotaccent" unicode="&#x10b;" horiz-adv-x="1167" 
d="M479 1214v281h295v-281h-295zM204.5 933q155.5 163 422.5 163q186 0 313 -79t190 -206l-319 -96q-63 102 -175 102t-181.5 -75.5t-69.5 -201.5t69 -205t171 -79q61 0 112 29.5t76 76.5l320 -98q-59 -125 -190 -204.5t-291 -79.5t-268 46t-221.5 162.5t-113.5 349
t155.5 395.5z" />
    <glyph glyph-name="Ccaron" unicode="&#x10c;" horiz-adv-x="1357" 
d="M55 735q0 135 47.5 265t137.5 232.5t220 166t310 63.5t323.5 -88t213.5 -229l-258 -180q-42 104 -124 151t-175 47q-169 0 -261 -130.5t-92 -306.5t98.5 -307.5t256.5 -131.5q91 0 151 34.5t92.5 72.5t53.5 93l276 -161q-65 -156 -232.5 -247t-334.5 -91t-292.5 64.5
t-216.5 171t-142.5 241.5t-51.5 270zM580 1874l174 -129l174 129l168 -76l-224 -219h-235l-225 219z" />
    <glyph glyph-name="ccaron" unicode="&#x10d;" horiz-adv-x="1167" 
d="M204.5 933q155.5 163 422.5 163q186 0 313 -79t190 -206l-319 -96q-63 102 -175 102t-181.5 -75.5t-69.5 -201.5t69 -205t171 -79q61 0 112 29.5t76 76.5l320 -98q-59 -125 -190 -204.5t-291 -79.5t-268 46t-221.5 162.5t-113.5 349t155.5 395.5zM451 1495l174 -129
l174 129l168 -76l-224 -219h-235l-225 219z" />
    <glyph glyph-name="Dcaron" unicode="&#x10e;" horiz-adv-x="1468" 
d="M963.5 1041.5q-101.5 117.5 -281.5 117.5h-207v-864h207q183 0 283 122t100 314q0 193 -101.5 310.5zM139 0v1454h543q344 0 534.5 -205t190.5 -529q0 -323 -198.5 -521.5t-526.5 -198.5h-543zM489 1874l175 -129l174 129l168 -76l-224 -219h-235l-225 219z" />
    <glyph glyph-name="dcaron" unicode="&#x10f;" horiz-adv-x="1351" 
d="M647 256q68 0 129.5 40t95.5 110v225q-31 82 -98.5 134t-131.5 52q-113 0 -183 -83.5t-70 -203.5t71.5 -197t186.5 -77zM503 -20q-167 0 -309.5 160.5t-142.5 398.5t135 397.5t340 159.5q111 0 203 -53.5t141 -143.5v596h328v-1126q0 -49 18.5 -68.5t65.5 -24.5v-276
q-82 -16 -158 -16q-172 4 -196 137l-6 57q-59 -100 -155.5 -149t-263.5 -49zM1456 1171l-209 58l107 266h297z" />
    <glyph glyph-name="Dcroat" unicode="&#x110;" horiz-adv-x="1478" 
d="M972.5 1041q-100.5 118 -282.5 118h-207v-307h262v-242h-262v-315h207q183 0 283 122t100 314t-100.5 310zM147 0v610h-88v242h88v602h543q344 0 534.5 -205t190.5 -529q0 -323 -198.5 -521.5t-526.5 -198.5h-543z" />
    <glyph glyph-name="dcroat" unicode="&#x111;" horiz-adv-x="1351" 
d="M647 256q68 0 129.5 40t95.5 110v225q-31 82 -98.5 134t-131.5 52q-113 0 -183 -83.5t-70 -203.5t71.5 -197t186.5 -77zM503 -20q-167 0 -309.5 160.5t-142.5 398.5t135 397.5t340 159.5q111 0 203 -53.5t141 -143.5v305h-192v193h192v98h328v-98h125v-193h-125v-835
q0 -49 18.5 -68.5t65.5 -24.5v-276q-82 -16 -158 -16q-172 4 -196 137l-6 57q-59 -100 -155.5 -149t-263.5 -49z" />
    <glyph glyph-name="Emacron" unicode="&#x112;" horiz-adv-x="1230" 
d="M348 1651v198h623v-198h-623zM1161 295v-295h-1022v1454h1004v-295h-668v-282h574v-273h-574v-309h686z" />
    <glyph glyph-name="emacron" unicode="&#x113;" horiz-adv-x="1236" 
d="M313 1272v198h623v-198h-623zM622 860q-95 0 -158 -60.5t-73 -160.5h463q-10 102 -73.5 161.5t-158.5 59.5zM1200 564q0 -86 -8 -128h-795q8 -109 79 -165t152 -56t147.5 35t88.5 94l279 -78q-63 -127 -197 -206.5t-294 -79.5q-290 0 -446.5 159t-156.5 394t155 399
t421 164t382.5 -122t154.5 -223t38 -187z" />
    <glyph glyph-name="Ebreve" unicode="&#x114;" horiz-adv-x="1230" 
d="M656 1716q48 0 84 44t42 114h170q0 -132 -82.5 -216.5t-211.5 -84.5t-212.5 85t-83.5 216h175q0 -66 35.5 -112t83.5 -46zM1161 295v-295h-1022v1454h1004v-295h-668v-282h574v-273h-574v-309h686z" />
    <glyph glyph-name="ebreve" unicode="&#x115;" horiz-adv-x="1236" 
d="M622 1337q48 0 83.5 44t42.5 114h170q0 -130 -82 -215.5t-211 -85.5t-213 84t-84 217h174q0 -66 36 -112t84 -46zM622 860q-95 0 -158 -60.5t-73 -160.5h463q-10 102 -73.5 161.5t-158.5 59.5zM1200 564q0 -86 -8 -128h-795q8 -109 79 -165t152 -56t147.5 35t88.5 94
l279 -78q-63 -127 -197 -206.5t-294 -79.5q-290 0 -446.5 159t-156.5 394t155 399t421 164t382.5 -122t154.5 -223t38 -187z" />
    <glyph glyph-name="Edotaccent" unicode="&#x116;" horiz-adv-x="1230" 
d="M512 1593v281h295v-281h-295zM1161 295v-295h-1022v1454h1004v-295h-668v-282h574v-273h-574v-309h686z" />
    <glyph glyph-name="edotaccent" unicode="&#x117;" horiz-adv-x="1236" 
d="M477 1214v281h295v-281h-295zM622 860q-95 0 -158 -60.5t-73 -160.5h463q-10 102 -73.5 161.5t-158.5 59.5zM1200 564q0 -86 -8 -128h-795q8 -109 79 -165t152 -56t147.5 35t88.5 94l279 -78q-63 -127 -197 -206.5t-294 -79.5q-290 0 -446.5 159t-156.5 394t155 399
t421 164t382.5 -122t154.5 -223t38 -187z" />
    <glyph glyph-name="Eogonek" unicode="&#x118;" horiz-adv-x="1230" 
d="M393 -227q0 122 170 227h-424v1454h1004v-295h-668v-282h574v-273h-574v-309h686v-295h-432q-164 -92 -164 -180q0 -76 133 -80l-63 -158q-123 16 -182.5 69.5t-59.5 121.5z" />
    <glyph glyph-name="eogonek" unicode="&#x119;" horiz-adv-x="1241" 
d="M624 860q-95 0 -158 -60.5t-73 -160.5h463q-10 102 -73.5 161.5t-158.5 59.5zM451 -229q0 113 141 211q-247 12 -394 169t-147 387q0 229 155 393.5t421 164.5t420.5 -162t154.5 -393q0 -63 -8 -105h-795q8 -109 79 -165t152 -56t147.5 35t88.5 94l279 -78
q-49 -98 -141.5 -168.5t-219.5 -99.5q-162 -98 -161 -180q0 -76 133 -80l-64 -158q-123 16 -182 69.5t-59 121.5z" />
    <glyph glyph-name="Ecaron" unicode="&#x11a;" horiz-adv-x="1230" 
d="M1161 295v-295h-1022v1454h1004v-295h-668v-282h574v-273h-574v-309h686zM483 1874l174 -129l174 129l168 -76l-223 -219h-235l-226 219z" />
    <glyph glyph-name="ecaron" unicode="&#x11b;" horiz-adv-x="1236" 
d="M622 860q-95 0 -158 -60.5t-73 -160.5h463q-10 102 -73.5 161.5t-158.5 59.5zM1200 564q0 -86 -8 -128h-795q8 -109 79 -165t152 -56t147.5 35t88.5 94l279 -78q-63 -127 -197 -206.5t-294 -79.5q-290 0 -446.5 159t-156.5 394t155 399t421 164t382.5 -122t154.5 -223
t38 -187zM449 1495l174 -129l174 129l168 -76l-224 -219h-235l-225 219z" />
    <glyph glyph-name="Gcircumflex" unicode="&#x11c;" horiz-adv-x="1443" 
d="M727 -10q-137 0 -259 61.5t-213 163.5t-144.5 238.5t-53.5 284.5t53.5 281.5t147.5 232t221 155.5t297 57t315.5 -85t217.5 -232l-252 -189q-45 98 -130 152.5t-173 54.5q-162 0 -258.5 -127t-96.5 -313q0 -187 100 -311.5t257 -124.5q185 0 325 178v49h-280v244h559
v-760h-279v141q-151 -151 -354 -151zM410 1653l225 221h235l224 -221l-168 -74l-174 129l-174 -129z" />
    <glyph glyph-name="gcircumflex" unicode="&#x11d;" horiz-adv-x="1308" 
d="M638 817q-116 0 -183.5 -85.5t-67.5 -202.5q0 -116 72.5 -194.5t194.5 -78.5q66 0 124 42t92 108v225q-33 86 -100.5 136t-131.5 50zM478 -4q-157 0 -291 157.5t-134 389.5t140 392.5t360 160.5q121 0 213 -52.5t147 -144.5v176h285v-1001q0 -243 -172.5 -387
t-450.5 -144q-174 0 -296.5 55.5t-215.5 159.5l175 179q59 -68 147.5 -108t168.5 -40q146 0 231 69t85 216v104q-49 -90 -142 -136t-250 -46zM367 1274l225 221h235l224 -221l-168 -74l-174 129l-174 -129z" />
    <glyph glyph-name="Gbreve" unicode="&#x11e;" horiz-adv-x="1443" 
d="M751 1716q48 0 83.5 44t42.5 114h170q0 -132 -82.5 -216.5t-211 -84.5t-212.5 84t-84 217h174q0 -66 36 -112t84 -46zM727 -10q-137 0 -259 61.5t-213 163.5t-144.5 238.5t-53.5 284.5t53.5 281.5t147.5 232t221 155.5t297 57t315.5 -85t217.5 -232l-252 -189
q-45 98 -130 152.5t-173 54.5q-162 0 -258.5 -127t-96.5 -313q0 -187 100 -311.5t257 -124.5q185 0 325 178v49h-280v244h559v-760h-279v141q-151 -151 -354 -151z" />
    <glyph glyph-name="gbreve" unicode="&#x11f;" horiz-adv-x="1308" 
d="M708 1337q48 0 83.5 44t42.5 114h170q0 -132 -82.5 -216.5t-211 -84.5t-212.5 84t-84 217h174q0 -66 36 -112t84 -46zM638 817q-116 0 -183.5 -85.5t-67.5 -202.5q0 -116 72.5 -194.5t194.5 -78.5q66 0 124 42t92 108v225q-33 86 -100.5 136t-131.5 50zM478 -4
q-157 0 -291 157.5t-134 389.5t140 392.5t360 160.5q121 0 213 -52.5t147 -144.5v176h285v-1001q0 -243 -172.5 -387t-450.5 -144q-174 0 -296.5 55.5t-215.5 159.5l175 179q59 -68 147.5 -108t168.5 -40q146 0 231 69t85 216v104q-49 -90 -142 -136t-250 -46z" />
    <glyph glyph-name="Gdotaccent" unicode="&#x120;" horiz-adv-x="1443" 
d="M606 1593v281h295v-281h-295zM727 -10q-137 0 -259 61.5t-213 163.5t-144.5 238.5t-53.5 284.5t53.5 281.5t147.5 232t221 155.5t297 57t315.5 -85t217.5 -232l-252 -189q-45 98 -130 152.5t-173 54.5q-162 0 -258.5 -127t-96.5 -313q0 -187 100 -311.5t257 -124.5
q185 0 325 178v49h-280v244h559v-760h-279v141q-151 -151 -354 -151z" />
    <glyph glyph-name="gdotaccent" unicode="&#x121;" horiz-adv-x="1308" 
d="M561 1214v281h295v-281h-295zM638 817q-116 0 -183.5 -85.5t-67.5 -202.5q0 -116 72.5 -194.5t194.5 -78.5q66 0 124 42t92 108v225q-33 86 -100.5 136t-131.5 50zM478 -4q-157 0 -291 157.5t-134 389.5t140 392.5t360 160.5q121 0 213 -52.5t147 -144.5v176h285v-1001
q0 -243 -172.5 -387t-450.5 -144q-174 0 -296.5 55.5t-215.5 159.5l175 179q59 -68 147.5 -108t168.5 -40q146 0 231 69t85 216v104q-49 -90 -142 -136t-250 -46z" />
    <glyph glyph-name="Gcommaaccent" unicode="&#x122;" horiz-adv-x="1443" 
d="M727 -10q-137 0 -259 61.5t-213 163.5t-144.5 238.5t-53.5 284.5t53.5 281.5t147.5 232t221 155.5t297 57t315.5 -85t217.5 -232l-252 -189q-45 98 -130 152.5t-173 54.5q-162 0 -258.5 -127t-96.5 -313q0 -187 100 -311.5t257 -124.5q185 0 325 178v49h-280v244h559
v-760h-279v141q-151 -151 -354 -151zM535 -283q78 0 77 56v131h267v-144q0 -107 -88 -139.5t-256 -32.5v129z" />
    <glyph glyph-name="gcommaaccent" unicode="&#x123;" horiz-adv-x="1308" 
d="M638 817q-116 0 -183.5 -85.5t-67.5 -202.5q0 -116 72.5 -194.5t194.5 -78.5q66 0 124 42t92 108v225q-33 86 -100.5 136t-131.5 50zM478 -4q-157 0 -291 157.5t-134 389.5t140 392.5t360 160.5q121 0 213 -52.5t147 -144.5v176h285v-1001q0 -243 -172.5 -387
t-450.5 -144q-174 0 -296.5 55.5t-215.5 159.5l175 179q59 -68 147.5 -108t168.5 -40q146 0 231 69t85 216v104q-49 -90 -142 -136t-250 -46zM803 1171l-209 58l106 266h297z" />
    <glyph glyph-name="Hcircumflex" unicode="&#x124;" horiz-adv-x="1529" 
d="M1391 1454v-1454h-336v596h-580v-596h-336v1454h336v-563h580v563h336zM428 1651l225 221h236l223 -221l-168 -74l-174 129l-174 -129z" />
    <glyph glyph-name="hcircumflex" unicode="&#x125;" horiz-adv-x="1251" 
d="M1149 0h-328v604q0 104 -42 153.5t-113 49.5q-101 0 -157 -74t-71 -117v-616h-327v1495h327v-600q59 96 156.5 148.5t211.5 52.5q201 0 272 -117t71 -291v-688zM518 1278l193 215h198l191 -215l-144 -72l-147 125l-147 -125z" />
    <glyph glyph-name="Hbar" unicode="&#x126;" horiz-adv-x="1544" 
d="M1061 891v217h-580v-217h580zM1397 1454v-190h104v-156h-104v-1108h-336v596h-580v-596h-336v1108h-102v156h102v190h336v-190h580v190h336z" />
    <glyph glyph-name="hbar" unicode="&#x127;" horiz-adv-x="1251" 
d="M1149 0h-328v604q0 104 -42 153.5t-113 49.5q-101 0 -157 -74t-71 -117v-616h-327v1204h-76v193h76v98h327v-98h240v-193h-240v-309q59 96 156.5 148.5t211.5 52.5q201 0 272 -117t71 -291v-688z" />
    <glyph glyph-name="Itilde" unicode="&#x128;" horiz-adv-x="614" 
d="M450 1583q-62 0 -97.5 14.5t-66 33t-59 32.5t-74.5 14t-65.5 -36t-19.5 -62h-177q0 23 13.5 71t68 134t179.5 86q68 0 123 -34t83.5 -49t64.5 -15q61 0 84 38.5t23 63.5h177q0 -16 -14.5 -63.5t-46.5 -98.5t-83 -90t-113 -39zM139 0v1454h336v-1454h-336z" />
    <glyph glyph-name="itilde" unicode="&#x129;" 
d="M420 1204q-62 0 -97.5 14.5t-66.5 33t-59.5 32.5t-74.5 14t-65.5 -36t-19.5 -62h-176q0 23 13 71t67.5 134t179.5 86q70 0 124 -34t82.5 -49t64.5 -15q60 0 84 38.5t24 63.5h176q0 -16 -14.5 -63.5t-46 -98.5t-82.5 -90t-113 -39zM111 0v1075h327v-1075h-327z" />
    <glyph glyph-name="Imacron" unicode="&#x12a;" horiz-adv-x="614" 
d="M-2 1651v198h623v-198h-623zM139 0v1454h336v-1454h-336z" />
    <glyph glyph-name="imacron" unicode="&#x12b;" 
d="M-35 1272v198h623v-198h-623zM111 0v1075h327v-1075h-327z" />
    <glyph glyph-name="Ibreve" unicode="&#x12c;" horiz-adv-x="614" 
d="M304 1716q48 0 84 44t42 114h170q0 -132 -82.5 -216.5t-211 -84.5t-212.5 84t-84 217h174q0 -66 36 -112t84 -46zM139 0v1454h336v-1454h-336z" />
    <glyph glyph-name="ibreve" unicode="&#x12d;" 
d="M273 1337q48 0 84 44t42 114h170q0 -131 -81.5 -216t-211.5 -85t-213 84.5t-83 216.5h174q0 -66 35.5 -112t83.5 -46zM111 0v1075h327v-1075h-327z" />
    <glyph glyph-name="Iogonek" unicode="&#x12e;" horiz-adv-x="614" 
d="M307 -182q0 -76 133 -80l-63 -158q-123 16 -182.5 69.5t-59.5 121.5q0 123 172 229h-168v1454h336v-1454q-168 -98 -168 -182z" />
    <glyph glyph-name="iogonek" unicode="&#x12f;" horiz-adv-x="550" 
d="M111 1198v297h327v-297h-327zM270 -182q0 -76 133 -80l-63 -158q-123 16 -182.5 69.5t-59.5 121.5q0 123 172 229h-159v1075h327v-1075q-168 -98 -168 -182z" />
    <glyph glyph-name="Idotaccent" unicode="&#x130;" horiz-adv-x="614" 
d="M160 1593v281h295v-281h-295zM139 0v1454h336v-1454h-336z" />
    <glyph glyph-name="dotlessi" unicode="&#x131;" 
d="M111 0v1075h327v-1075h-327z" />
    <glyph glyph-name="IJ" unicode="&#x132;" horiz-adv-x="1634" 
d="M940 276q82 0 127 26t77 95t32 318v739h335v-739q0 -166 -17 -302.5t-108 -286t-440 -149.5q-184 0 -315 91l74 274q20 -16 86.5 -41t148.5 -25zM139 0v1454h336v-1454h-336z" />
    <glyph glyph-name="ij" unicode="&#x133;" horiz-adv-x="1099" 
d="M659 1198v297h328v-297h-328zM659 -18v1093h328v-1069q0 -187 -113 -303.5t-281 -116.5q-167 0 -288 103l137 223q37 -43 97 -43q59 0 89.5 30.5t30.5 82.5zM111 1198v297h327v-297h-327zM111 0v1075h327v-1075h-327z" />
    <glyph glyph-name="Jcircumflex" unicode="&#x134;" horiz-adv-x="1019" 
d="M326 276q82 0 127 26t76.5 94t31.5 319v739h336v-739q0 -166 -17.5 -302.5t-108.5 -286t-439 -149.5q-184 0 -316 91l74 274q20 -16 87 -41t149 -25zM391 1653l225 221h236l223 -221l-168 -74l-174 129l-174 -129z" />
    <glyph glyph-name="jcircumflex" unicode="&#x135;" 
d="M-68 1274l226 221h235l223 -221l-167 -74l-175 129l-174 -129zM111 -18v1093h327v-1069q0 -187 -113 -303.5t-281 -116.5q-167 0 -288 103l138 223q37 -43 96 -43t90 30.5t31 82.5z" />
    <glyph glyph-name="Kcommaaccent" unicode="&#x136;" horiz-adv-x="1386" 
d="M139 0v1454h336v-655l561 655h348l-544 -649l581 -805h-354l-426 616l-166 -180v-436h-336zM524 -283q78 0 78 56v131h266v-144q0 -107 -87.5 -139.5t-256.5 -32.5v129z" />
    <glyph glyph-name="kcommaaccent" unicode="&#x137;" horiz-adv-x="1163" 
d="M438 0h-327v1495h327v-866l365 446h348l-387 -463l418 -612h-348l-281 432l-115 -119v-313zM387 -283q78 0 78 56v131h266v-144q0 -107 -87.5 -139.5t-256.5 -32.5v129z" />
    <glyph glyph-name="kgreenlandic" unicode="&#x138;" horiz-adv-x="1163" 
d="M438 0h-327v1075h327v-446l365 446h348l-387 -463l418 -612h-348l-281 432l-115 -119v-313z" />
    <glyph glyph-name="Lacute" unicode="&#x139;" horiz-adv-x="1206" 
d="M139 0v1454h336v-1159h705v-295h-1041zM840 1550l-209 58l106 266h297z" />
    <glyph glyph-name="lacute" unicode="&#x13a;" horiz-adv-x="694" 
d="M109 268v1227h327v-1094q0 -123 107 -122q50 0 106 28l43 -264q-128 -61 -279 -61t-227.5 73.5t-76.5 212.5zM362 1561l-208 57l106 266h297z" />
    <glyph glyph-name="Lcommaaccent" unicode="&#x13b;" horiz-adv-x="1206" 
d="M139 0v1454h336v-1159h705v-295h-1041zM475 -283q78 0 78 56v131h266v-144q0 -107 -87.5 -139.5t-256.5 -32.5v129z" />
    <glyph glyph-name="lcommaaccent" unicode="&#x13c;" horiz-adv-x="694" 
d="M109 268v1227h327v-1094q0 -123 107 -122q50 0 106 28l43 -264q-128 -61 -279 -61t-227.5 73.5t-76.5 212.5zM186 -283q78 0 78 56v131h266v-144q0 -107 -87.5 -139.5t-256.5 -32.5v129z" />
    <glyph glyph-name="Lcaron" unicode="&#x13d;" horiz-adv-x="1206" 
d="M139 0v1454h336v-1159h705v-295h-1041zM870 1169l-208 58l106 266h297z" />
    <glyph glyph-name="lcaron" unicode="&#x13e;" horiz-adv-x="694" 
d="M109 268v1227h327v-1094q0 -123 107 -122q50 0 106 28l43 -264q-128 -61 -279 -61t-227.5 73.5t-76.5 212.5zM721 1169l-209 58l106 266h297z" />
    <glyph glyph-name="Ldot" unicode="&#x13f;" horiz-adv-x="1206" 
d="M748 666v340h266v-340h-266zM139 0v1454h336v-1159h705v-295h-1041z" />
    <glyph glyph-name="ldot" unicode="&#x140;" horiz-adv-x="876" 
d="M578 594v340h266v-340h-266zM109 268v1227h327v-1094q0 -123 107 -122q50 0 106 28l43 -264q-128 -61 -279 -61t-227.5 73.5t-76.5 212.5z" />
    <glyph glyph-name="Lslash" unicode="&#x141;" horiz-adv-x="1226" 
d="M162 0v561l-103 -57l-77 176l180 100v674h336v-483l188 106l78 -176l-266 -151v-455h704v-295h-1040z" />
    <glyph glyph-name="lslash" unicode="&#x142;" horiz-adv-x="751" 
d="M158 268v318l-97 -51l-77 176l174 94v690h327v-512l172 94l78 -176l-250 -137v-363q0 -123 107 -122q50 0 106 28l43 -264q-128 -61 -279 -61q-150 0 -227 73.5t-77 212.5z" />
    <glyph glyph-name="Nacute" unicode="&#x143;" horiz-adv-x="1554" 
d="M475 0h-336v1454h262l678 -854v854h336v-1454h-270l-670 831v-831zM868 1548l-209 58l107 266h297z" />
    <glyph glyph-name="nacute" unicode="&#x144;" horiz-adv-x="1251" 
d="M1149 0h-328v604q0 106 -40 154.5t-105 48.5q-109 0 -166 -75t-72 -116v-616h-327v1075h295v-180q59 96 167.5 148.5t230.5 52.5t233.5 -65t111.5 -343v-688zM756 1171l-209 58l106 266h297z" />
    <glyph glyph-name="Ncommaaccent" unicode="&#x145;" horiz-adv-x="1554" 
d="M475 0h-336v1454h262l678 -854v854h336v-1454h-270l-670 831v-831zM559 -283q78 0 78 56v131h266v-144q0 -107 -87.5 -139.5t-256.5 -32.5v129z" />
    <glyph glyph-name="ncommaaccent" unicode="&#x146;" horiz-adv-x="1251" 
d="M1149 0h-328v604q0 106 -40 154.5t-105 48.5q-109 0 -166 -75t-72 -116v-616h-327v1075h295v-180q59 96 167.5 148.5t230.5 52.5t233.5 -65t111.5 -343v-688zM412 -283q78 0 77 56v131h267v-144q0 -107 -88 -139.5t-256 -32.5v129z" />
    <glyph glyph-name="Ncaron" unicode="&#x147;" horiz-adv-x="1554" 
d="M475 0h-336v1454h262l678 -854v854h336v-1454h-270l-670 831v-831zM600 1872l174 -129l174 129l168 -76l-223 -219h-236l-225 219z" />
    <glyph glyph-name="ncaron" unicode="&#x148;" horiz-adv-x="1251" 
d="M1149 0h-328v604q0 106 -40 154.5t-105 48.5q-109 0 -166 -75t-72 -116v-616h-327v1075h295v-180q59 96 167.5 148.5t230.5 52.5t233.5 -65t111.5 -343v-688zM487 1495l175 -129l174 129l168 -76l-224 -219h-235l-226 219z" />
    <glyph glyph-name="napostrophe" unicode="&#x149;" horiz-adv-x="1251" 
d="M1149 0h-328v604q0 106 -40 154.5t-105 48.5q-109 0 -166 -75t-72 -116v-616h-327v1075h295v-180q59 96 167.5 148.5t230.5 52.5t233.5 -65t111.5 -343v-688zM141 1171l-209 58l68 164l-16 102h354z" />
    <glyph glyph-name="Eng" unicode="&#x14a;" horiz-adv-x="1519" 
d="M1053 -18v90l-578 749v-821h-336v1454h258l647 -838v836h336v-1456q0 -184 -114.5 -297t-280.5 -113t-287 103l138 223q37 -43 96 -43t90 30.5t31 82.5z" />
    <glyph glyph-name="eng" unicode="&#x14b;" horiz-adv-x="1249" 
d="M821 -18v622q0 106 -40 154.5t-105 48.5q-109 0 -166 -75t-72 -116v-616h-327v1075h295v-180q59 96 167.5 148.5t230.5 52.5t232.5 -64.5t110.5 -343.5v-682q0 -184 -114 -302t-281 -118q-168 0 -287 103l137 223q37 -43 97 -43q59 0 90.5 30.5t31.5 82.5z" />
    <glyph glyph-name="Omacron" unicode="&#x14c;" horiz-adv-x="1503" 
d="M493.5 417.5q94.5 -130.5 259.5 -130.5t258 131.5t93 310.5t-95 306.5t-258 127.5q-164 0 -258 -130t-94 -308q0 -177 94.5 -307.5zM748 -12q-154 0 -281 63.5t-218 167t-141.5 236.5t-50.5 275t52.5 275.5t145.5 234.5t221 161.5t282 60.5t280.5 -63.5t218 -168
t140.5 -237.5t49 -273t-52.5 -273.5t-144.5 -234.5t-219.5 -162.5t-281.5 -61.5zM446 1651v198h623v-198h-623z" />
    <glyph glyph-name="omacron" unicode="&#x14d;" horiz-adv-x="1247" 
d="M452.5 333q67.5 -77 171.5 -77t171 79t67 204t-67.5 201.5t-171.5 76.5t-171 -79t-67 -204q0 -124 67.5 -201zM624.5 -20q-137.5 0 -245 45t-181 121.5t-111.5 178t-38 212t38 212t111.5 178.5t181 123t245 46t244 -46t180 -123t112.5 -178.5t39 -212t-38 -212
t-111.5 -178t-181 -121.5t-245 -45zM315 1272v198h623v-198h-623z" />
    <glyph glyph-name="Obreve" unicode="&#x14e;" horiz-adv-x="1503" 
d="M755 1716q48 0 83.5 44t42.5 114h170q0 -132 -82.5 -216.5t-211 -84.5t-212.5 84t-84 217h174q0 -66 36 -112t84 -46zM493.5 417.5q94.5 -130.5 259.5 -130.5t258 131.5t93 310.5t-95 306.5t-258 127.5q-164 0 -258 -130t-94 -308q0 -177 94.5 -307.5zM748 -12
q-154 0 -281 63.5t-218 167t-141.5 236.5t-50.5 275t52.5 275.5t145.5 234.5t221 161.5t282 60.5t280.5 -63.5t218 -168t140.5 -237.5t49 -273t-52.5 -273.5t-144.5 -234.5t-219.5 -162.5t-281.5 -61.5z" />
    <glyph glyph-name="obreve" unicode="&#x14f;" horiz-adv-x="1247" 
d="M622 1337q48 0 83.5 44t42.5 114h170q0 -130 -82 -215.5t-211 -85.5t-213 84t-84 217h174q0 -66 36 -112t84 -46zM452.5 333q67.5 -77 171.5 -77t171 79t67 204t-67.5 201.5t-171.5 76.5t-171 -79t-67 -204q0 -124 67.5 -201zM624.5 -20q-137.5 0 -245 45t-181 121.5
t-111.5 178t-38 212t38 212t111.5 178.5t181 123t245 46t244 -46t180 -123t112.5 -178.5t39 -212t-38 -212t-111.5 -178t-181 -121.5t-245 -45z" />
    <glyph glyph-name="Ohungarumlaut" unicode="&#x150;" horiz-adv-x="1503" 
d="M493.5 417.5q94.5 -130.5 259.5 -130.5t258 131.5t93 310.5t-95 306.5t-258 127.5q-164 0 -258 -130t-94 -308q0 -177 94.5 -307.5zM748 -12q-154 0 -281 63.5t-218 167t-141.5 236.5t-50.5 275t52.5 275.5t145.5 234.5t221 161.5t282 60.5t280.5 -63.5t218 -168
t140.5 -237.5t49 -273t-52.5 -273.5t-144.5 -234.5t-219.5 -162.5t-281.5 -61.5zM985 1552l-158 58l91 266h245zM627 1552l-158 58l92 266h246z" />
    <glyph glyph-name="ohungarumlaut" unicode="&#x151;" horiz-adv-x="1247" 
d="M452.5 333q67.5 -77 171.5 -77t171 79t67 204t-67.5 201.5t-171.5 76.5t-171 -79t-67 -204q0 -124 67.5 -201zM624.5 -20q-137.5 0 -245 45t-181 121.5t-111.5 178t-38 212t38 212t111.5 178.5t181 123t245 46t244 -46t180 -123t112.5 -178.5t39 -212t-38 -212
t-111.5 -178t-181 -121.5t-245 -45zM852 1174l-158 57l90 266h246zM494 1174l-158 57l92 266h246z" />
    <glyph glyph-name="OE" unicode="&#x152;" horiz-adv-x="2174" 
d="M1104 729q0 179 -95.5 307.5t-259.5 128.5t-257 -132t-93 -309t95 -306t261 -129q164 0 256.5 130.5t92.5 309.5zM756 1464q210 0 362 -161v151h971v-295h-633v-272h522v-293h-522v-299h651v-295h-989v154q-159 -164 -368 -164q-156 0 -283 62.5t-218 166t-141.5 236.5
t-50.5 275t52.5 275.5t145.5 235.5t221 162.5t280 60.5z" />
    <glyph glyph-name="oe" unicode="&#x153;" horiz-adv-x="2054" 
d="M1435 860q-97 0 -160 -62.5t-73 -162.5h473q-10 102 -76.5 163.5t-163.5 61.5zM624.5 256q104.5 0 171 79t66.5 201.5t-66.5 201.5t-170.5 79t-172 -79t-68 -202q0 -124 67.5 -202t172 -78zM1030 879q168 217 413 217q250 0 367 -116t160 -219t44 -193t-7 -132h-795
q8 -97 78.5 -162t158.5 -65q89 0 154.5 38t88.5 97l268 -78q-101 -203 -263.5 -244.5t-264.5 -41.5q-196 0 -402 204q-102 -109 -196 -156.5t-216 -47.5t-226.5 41.5t-180.5 115.5t-119 176.5t-43 283t161.5 340t410.5 159.5t409 -217z" />
    <glyph glyph-name="Racute" unicode="&#x154;" horiz-adv-x="1392" 
d="M475 762h307q59 0 102.5 56t43.5 146t-49.5 142.5t-106.5 52.5h-297v-397zM139 0v1454h656q197 0 336 -152t139 -339q0 -133 -62.5 -246.5t-175.5 -175.5l334 -541h-379l-293 469h-219v-469h-336zM748 1548l-209 58l106 266h297z" />
    <glyph glyph-name="racute" unicode="&#x155;" horiz-adv-x="821" 
d="M438 0h-327v1075h301v-217q57 109 144 169t185 65q41 0 52 -2v-295q-119 -2 -214.5 -39t-140.5 -111v-645zM594 1171l-209 58l107 266h296z" />
    <glyph glyph-name="Rcommaaccent" unicode="&#x156;" horiz-adv-x="1392" 
d="M475 762h307q59 0 102.5 56t43.5 146t-49.5 142.5t-106.5 52.5h-297v-397zM139 0v1454h656q197 0 336 -152t139 -339q0 -133 -62.5 -246.5t-175.5 -175.5l334 -541h-379l-293 469h-219v-469h-336zM498 -283q78 0 77 56v131h267v-144q0 -107 -88 -139.5t-256 -32.5v129z
" />
    <glyph glyph-name="rcommaaccent" unicode="&#x157;" horiz-adv-x="821" 
d="M438 0h-327v1075h301v-217q57 109 144 169t185 65q41 0 52 -2v-295q-119 -2 -214.5 -39t-140.5 -111v-645zM49 -283q78 0 78 56v131h266v-144q0 -107 -87.5 -139.5t-256.5 -32.5v129z" />
    <glyph glyph-name="Rcaron" unicode="&#x158;" horiz-adv-x="1392" 
d="M475 762h307q59 0 102.5 56t43.5 146t-49.5 142.5t-106.5 52.5h-297v-397zM139 0v1454h656q197 0 336 -152t139 -339q0 -133 -62.5 -246.5t-175.5 -175.5l334 -541h-379l-293 469h-219v-469h-336zM479 1872l174 -129l174 129l168 -76l-223 -219h-235l-226 219z" />
    <glyph glyph-name="rcaron" unicode="&#x159;" horiz-adv-x="821" 
d="M438 0h-327v1075h301v-217q57 109 144 169t185 65q41 0 52 -2v-295q-119 -2 -214.5 -39t-140.5 -111v-645zM326 1495l174 -129l174 129l168 -76l-224 -219h-235l-225 219z" />
    <glyph glyph-name="Sacute" unicode="&#x15a;" horiz-adv-x="1261" 
d="M625 1167q-179 0 -179 -120q0 -65 60.5 -96t204.5 -72q143 -40 227 -73.5t175 -110t91 -267.5q0 -230 -155.5 -337t-394.5 -107t-396.5 68.5t-220.5 111.5l147 293q10 -10 55.5 -39t162.5 -80t262 -51q178 0 178 108q0 41 -27 67.5t-74 48t-110 40t-151 45.5
q-196 60 -289 148.5t-93 248.5q0 221 154.5 347t396.5 126q243 0 510 -159l-145 -279q-30 30 -153.5 84.5t-235.5 54.5zM758 1559l-209 57l106 266h297z" />
    <glyph glyph-name="sacute" unicode="&#x15b;" horiz-adv-x="1058" 
d="M383 778q0 -61 72.5 -81.5t160.5 -42.5q208 -53 304 -123t96 -216q0 -147 -123 -241t-335 -94t-348 53t-185 84l129 221q221 -127 399 -127q147 0 147 65.5t-51 89t-168 54.5q-235 62 -318 127t-83 184q0 164 127 264.5t331 100.5t447 -127l-129 -207q-193 106 -333 106
t-140 -90zM616 1171l-208 58l106 266h297z" />
    <glyph glyph-name="Scircumflex" unicode="&#x15c;" horiz-adv-x="1261" 
d="M625 1167q-179 0 -179 -120q0 -65 60.5 -96t204.5 -72q143 -40 227 -73.5t175 -110t91 -267.5q0 -230 -155.5 -337t-394.5 -107t-396.5 68.5t-220.5 111.5l147 293q10 -10 55.5 -39t162.5 -80t262 -51q178 0 178 108q0 41 -27 67.5t-74 48t-110 40t-151 45.5
q-196 60 -289 148.5t-93 248.5q0 221 154.5 347t396.5 126q243 0 510 -159l-145 -279q-30 30 -153.5 84.5t-235.5 54.5zM322 1661l225 221h235l224 -221l-168 -74l-174 129l-175 -129z" />
    <glyph glyph-name="scircumflex" unicode="&#x15d;" horiz-adv-x="1058" 
d="M383 778q0 -61 72.5 -81.5t160.5 -42.5q208 -53 304 -123t96 -216q0 -147 -123 -241t-335 -94t-348 53t-185 84l129 221q221 -127 399 -127q147 0 147 65.5t-51 89t-168 54.5q-235 62 -318 127t-83 184q0 164 127 264.5t331 100.5t447 -127l-129 -207q-193 106 -333 106
t-140 -90zM182 1274l226 221h235l223 -221l-168 -74l-174 129l-174 -129z" />
    <glyph glyph-name="uni015E" unicode="&#x15e;" horiz-adv-x="1261" 
d="M625 1167q-179 0 -179 -120q0 -65 60.5 -96t204.5 -72q143 -40 227 -73.5t175 -110t91 -277.5t-133.5 -310t-341.5 -122l-43 -64q28 6 82 6t109 -35.5t55 -116.5t-69.5 -137.5t-199.5 -56.5t-241 43l61 115q23 -14 76 -27.5t109 -13.5q114 -1 114 65t-100 66t-172 -23
l86 179q-325 22 -559 178l147 293q10 -10 55.5 -39t162.5 -80t262 -51q178 0 178 108q0 41 -27 67.5t-74 48t-110 40t-151 45.5q-196 60 -289 148.5t-93 248.5q0 221 154.5 347t396.5 126q243 0 510 -159l-145 -279q-30 30 -153.5 84.5t-235.5 54.5z" />
    <glyph glyph-name="uni015F" unicode="&#x15f;" horiz-adv-x="1060" 
d="M383 778q0 -61 72.5 -81.5t160.5 -42.5q208 -53 304 -123t96 -209t-100.5 -230.5t-276.5 -107.5l-41 -62q27 6 81 6t109.5 -35.5t55.5 -116.5t-69.5 -137.5t-199.5 -56.5t-241 43l61 115q23 -14 76 -27.5t109 -13.5q114 -1 114 65t-100 66t-172 -23l84 175
q-127 6 -259 42.5t-222 92.5l129 221q221 -127 399 -127q147 0 147 65.5t-51 89t-168 54.5q-235 62 -318 127t-83 184q0 164 127 264.5t331 100.5t447 -127l-129 -207q-193 106 -333 106t-140 -90z" />
    <glyph glyph-name="Scaron" unicode="&#x160;" horiz-adv-x="1261" 
d="M625 1167q-179 0 -179 -120q0 -65 60.5 -96t204.5 -72q143 -40 227 -73.5t175 -110t91 -267.5q0 -230 -155.5 -337t-394.5 -107t-396.5 68.5t-220.5 111.5l147 293q10 -10 55.5 -39t162.5 -80t262 -51q178 0 178 108q0 41 -27 67.5t-74 48t-110 40t-151 45.5
q-196 60 -289 148.5t-93 248.5q0 221 154.5 347t396.5 126q243 0 510 -159l-145 -279q-30 30 -153.5 84.5t-235.5 54.5zM489 1882l175 -129l174 129l168 -76l-224 -219h-235l-225 219z" />
    <glyph glyph-name="scaron" unicode="&#x161;" horiz-adv-x="1058" 
d="M383 778q0 -61 72.5 -81.5t160.5 -42.5q208 -53 304 -123t96 -216q0 -147 -123 -241t-335 -94t-348 53t-185 84l129 221q221 -127 399 -127q147 0 147 65.5t-51 89t-168 54.5q-235 62 -318 127t-83 184q0 164 127 264.5t331 100.5t447 -127l-129 -207q-193 106 -333 106
t-140 -90zM350 1495l174 -129l174 129l168 -76l-223 -219h-235l-226 219z" />
    <glyph glyph-name="uni0162" unicode="&#x162;" horiz-adv-x="1273" 
d="M668 -301q114 -1 114 65t-100 66t-172 -23l94 193h-135v1159h-444v295h1222v-295h-442v-1159h-66l-53 -78q28 6 82 6t109 -35.5t55 -116.5t-69.5 -137.5t-199.5 -56.5t-241 43l61 115q23 -14 76 -27.5t109 -13.5z" />
    <glyph glyph-name="uni0163" unicode="&#x163;" horiz-adv-x="823" 
d="M508 379q0 -100 105 -100q50 0 135 38l61 -260q-119 -52 -250 -71l-43 -64q28 6 82 6t109 -35.5t55 -116.5t-69.5 -137.5t-199.5 -56.5t-241 43l61 115q23 -14 76 -27.5t109 -13.5q114 -1 114 65t-100 66t-172 -23l86 177q-173 20 -209.5 116.5t-36.5 165.5v561h-137v248
h137v342h328v-342h219v-248h-219v-448z" />
    <glyph glyph-name="Tcaron" unicode="&#x164;" horiz-adv-x="1273" 
d="M1247 1159h-442v-1159h-336v1159h-444v295h1222v-295zM475 1874l174 -129l174 129l168 -76l-223 -219h-236l-225 219z" />
    <glyph glyph-name="tcaron" unicode="&#x165;" horiz-adv-x="821" 
d="M506 379q0 -100 106 -100q51 0 133 38l62 -260q-181 -77 -330 -77q-210 0 -254.5 104t-44.5 182v561h-137v248h137v342h328v-342h219v-248h-219v-448zM795 1171l-209 58l106 266h297z" />
    <glyph glyph-name="Tbar" unicode="&#x166;" horiz-adv-x="1329" 
d="M1274 1159h-443v-405h367v-156h-367v-598h-335v598h-365v156h365v405h-445v295h1223v-295z" />
    <glyph glyph-name="tbar" unicode="&#x167;" horiz-adv-x="823" 
d="M508 379q0 -100 105 -100q50 0 135 38l61 -260q-181 -77 -330 -77q-210 0 -254.5 104t-44.5 182v240h-137v190h137v131h-137v248h137v342h328v-342h219v-248h-219v-131h219v-190h-219v-127z" />
    <glyph glyph-name="Utilde" unicode="&#x168;" horiz-adv-x="1525" 
d="M908 1583q-62 0 -98 14.5t-66.5 33t-59.5 32.5t-74 14t-65.5 -36t-20.5 -62h-176q0 23 13.5 71t67 134t179.5 86q70 0 124 -34t83 -49t65 -15q59 0 83 38.5t24 63.5h176q0 -16 -14 -63.5t-46 -98.5t-82.5 -90t-112.5 -39zM799.5 287q123.5 0 197.5 120.5t74 303.5v743
h336v-743q0 -319 -161 -521t-487 -202t-484 204.5t-158 518.5v743h336v-743q0 -292 111.5 -358t235 -66z" />
    <glyph glyph-name="utilde" unicode="&#x169;" horiz-adv-x="1296" 
d="M768 1204q-62 0 -97.5 14.5t-66.5 33t-59.5 32.5t-73.5 14t-65.5 -36t-20.5 -62h-176q0 23 13.5 71t67 134t179.5 86q70 0 124 -34t82.5 -49t64.5 -15q60 0 84 38.5t24 63.5h176q0 -16 -14.5 -63.5t-46 -98.5t-82.5 -90t-113 -39zM102 387v688h328v-616q0 -98 39 -150.5
t111 -52.5q150 0 235 156v663h328v-706q0 -49 18.5 -68.5t65.5 -24.5v-276q-82 -16 -156 -16q-172 2 -199 137l-6 65q-144 -206 -428 -206q-164 0 -250 103t-86 304z" />
    <glyph glyph-name="Umacron" unicode="&#x16a;" horiz-adv-x="1525" 
d="M453 1651v198h622v-198h-622zM799.5 287q123.5 0 197.5 120.5t74 303.5v743h336v-743q0 -319 -161 -521t-487 -202t-484 204.5t-158 518.5v743h336v-743q0 -292 111.5 -358t235 -66z" />
    <glyph glyph-name="umacron" unicode="&#x16b;" horiz-adv-x="1296" 
d="M313 1272v198h623v-198h-623zM102 387v688h328v-616q0 -98 39 -150.5t111 -52.5q150 0 235 156v663h328v-706q0 -49 18.5 -68.5t65.5 -24.5v-276q-82 -16 -156 -16q-172 2 -199 137l-6 65q-144 -206 -428 -206q-164 0 -250 103t-86 304z" />
    <glyph glyph-name="Ubreve" unicode="&#x16c;" horiz-adv-x="1525" 
d="M761 1716q48 0 84 44t42 114h170q0 -132 -82.5 -216.5t-211 -84.5t-212.5 84t-84 217h174q0 -66 36 -112t84 -46zM799.5 287q123.5 0 197.5 120.5t74 303.5v743h336v-743q0 -319 -161 -521t-487 -202t-484 204.5t-158 518.5v743h336v-743q0 -292 111.5 -358t235 -66z" />
    <glyph glyph-name="ubreve" unicode="&#x16d;" horiz-adv-x="1296" 
d="M622 1337q48 0 83.5 44t42.5 114h170q0 -130 -82 -215.5t-211 -85.5t-213 84t-84 217h174q0 -66 36 -112t84 -46zM102 387v688h328v-616q0 -98 39 -150.5t111 -52.5q150 0 235 156v663h328v-706q0 -49 18.5 -68.5t65.5 -24.5v-276q-82 -16 -156 -16q-172 2 -199 137
l-6 65q-144 -206 -428 -206q-164 0 -250 103t-86 304z" />
    <glyph glyph-name="Uring" unicode="&#x16e;" horiz-adv-x="1525" 
d="M799.5 287q123.5 0 197.5 120.5t74 303.5v743h336v-743q0 -319 -161 -521t-487 -202t-484 204.5t-158 518.5v743h336v-743q0 -292 111.5 -358t235 -66zM762 1778q-35 0 -58.5 -19.5t-23.5 -50.5t23.5 -51.5t57.5 -20.5t58.5 19.5t24.5 51.5t-23.5 51.5t-58.5 19.5z
M543 1707q0 83 60.5 125t158.5 42t157.5 -42t59.5 -125t-59.5 -125t-157.5 -42t-158.5 42t-60.5 125z" />
    <glyph glyph-name="uring" unicode="&#x16f;" horiz-adv-x="1296" 
d="M102 387v688h328v-616q0 -98 39 -150.5t111 -52.5q150 0 235 156v663h328v-706q0 -49 18.5 -68.5t65.5 -24.5v-276q-82 -16 -156 -16q-172 2 -199 137l-6 65q-144 -206 -428 -206q-164 0 -250 103t-86 304zM622.5 1399q-34.5 0 -58 -19.5t-23.5 -50.5t23.5 -51.5
t57.5 -20.5t58.5 19.5t24.5 51.5t-24 51.5t-58.5 19.5zM403 1328q0 83 60.5 125t159 42t158 -42t59.5 -125t-59.5 -125t-158 -42t-159 42t-60.5 125z" />
    <glyph glyph-name="Uhungarumlaut" unicode="&#x170;" horiz-adv-x="1525" 
d="M989 1552l-158 58l91 266h245zM631 1552l-158 58l92 266h246zM799.5 287q123.5 0 197.5 120.5t74 303.5v743h336v-743q0 -319 -161 -521t-487 -202t-484 204.5t-158 518.5v743h336v-743q0 -292 111.5 -358t235 -66z" />
    <glyph glyph-name="uhungarumlaut" unicode="&#x171;" horiz-adv-x="1296" 
d="M852 1174l-158 57l90 266h246zM494 1174l-158 57l92 266h246zM102 387v688h328v-616q0 -98 39 -150.5t111 -52.5q150 0 235 156v663h328v-706q0 -49 18.5 -68.5t65.5 -24.5v-276q-82 -16 -156 -16q-172 2 -199 137l-6 65q-144 -206 -428 -206q-164 0 -250 103t-86 304z
" />
    <glyph glyph-name="Uogonek" unicode="&#x172;" horiz-adv-x="1525" 
d="M496 -229q0 120 163 223q-275 34 -408.5 230.5t-133.5 486.5v743h336v-743q0 -292 111.5 -358t235 -66t197.5 120.5t74 303.5v743h336v-743q0 -306 -149 -506t-441 -215q-150 -92 -149 -172q0 -76 133 -80l-64 -158q-123 16 -182 69.5t-59 121.5z" />
    <glyph glyph-name="uogonek" unicode="&#x173;" horiz-adv-x="1296" 
d="M102 387v688h328v-616q0 -98 39 -150.5t111 -52.5q150 0 235 156v663h328v-706q0 -49 18.5 -68.5t65.5 -24.5v-276q-168 -98 -168 -182q0 -76 133 -80l-64 -158q-123 16 -182 69.5t-59 121.5q0 112 149 215q-139 14 -164 135l-6 65q-144 -206 -428 -206q-164 0 -250 103
t-86 304z" />
    <glyph glyph-name="Wcircumflex" unicode="&#x174;" horiz-adv-x="2162" 
d="M623 1452h311l145 -465l150 465h309l-244 -676l148 -391l366 1069h365l-580 -1454h-282l-230 569l-231 -569h-281l-579 1454h362l369 -1069l143 391zM737 1653l226 221h235l223 -221l-168 -74l-174 129l-174 -129z" />
    <glyph glyph-name="wcircumflex" unicode="&#x175;" horiz-adv-x="1753" 
d="M1446 1075h309l-444 -1075h-269l-165 442l-164 -442h-269l-444 1075h309l291 -772l100 293l-188 479h262l103 -323l104 323h262l-190 -479l102 -293zM535 1274l225 221h235l224 -221l-168 -74l-174 129l-175 -129z" />
    <glyph glyph-name="Ycircumflex" unicode="&#x176;" horiz-adv-x="1327" 
d="M319 1653l226 221h235l224 -221l-168 -74l-174 129l-175 -129zM829 0h-335v500l-510 954h364l314 -668l319 668h365l-517 -958v-496z" />
    <glyph glyph-name="ycircumflex" unicode="&#x177;" horiz-adv-x="1116" 
d="M238 1274l225 221h235l224 -221l-168 -74l-174 129l-174 -129zM249 -188q60 0 94 42t56 146l-407 1075h336l252 -794l215 794h305l-412 -1249q-45 -135 -152.5 -216t-226.5 -82t-203 30v280q83 -26 143 -26z" />
    <glyph glyph-name="Ydieresis" unicode="&#x178;" horiz-adv-x="1327" 
d="M741 1595v265h271v-265h-271zM311 1595v265h271v-265h-271zM829 0h-335v500l-510 954h364l314 -668l319 668h365l-517 -958v-496z" />
    <glyph glyph-name="Zacute" unicode="&#x179;" horiz-adv-x="1275" 
d="M84 1159v295h1116v-252l-723 -907h731v-295h-1153v252l756 907h-727zM754 1550l-209 58l106 266h297z" />
    <glyph glyph-name="zacute" unicode="&#x17a;" horiz-adv-x="1007" 
d="M76 848v227h864v-196l-547 -652h559v-227h-905v197l549 651h-520zM596 1171l-209 58l107 266h297z" />
    <glyph glyph-name="Zdotaccent" unicode="&#x17b;" horiz-adv-x="1275" 
d="M512 1593v281h295v-281h-295zM84 1159v295h1116v-252l-723 -907h731v-295h-1153v252l756 907h-727z" />
    <glyph glyph-name="zdotaccent" unicode="&#x17c;" horiz-adv-x="1007" 
d="M356 1214v281h295v-281h-295zM76 848v227h864v-196l-547 -652h559v-227h-905v197l549 651h-520z" />
    <glyph glyph-name="Zcaron" unicode="&#x17d;" horiz-adv-x="1275" 
d="M84 1159v295h1116v-252l-723 -907h731v-295h-1153v252l756 907h-727zM485 1874l174 -129l175 129l167 -76l-223 -219h-235l-226 219z" />
    <glyph glyph-name="zcaron" unicode="&#x17e;" horiz-adv-x="1007" 
d="M76 848v227h864v-196l-547 -652h559v-227h-905v197l549 651h-520zM328 1495l174 -129l174 129l168 -76l-223 -219h-236l-225 219z" />
    <glyph glyph-name="florin" unicode="&#x192;" horiz-adv-x="1140" 
d="M862 1239q-121 0 -121 -152v-137h250v-248h-250v-712q0 -178 -114.5 -291t-280.5 -113t-287 103l138 223q37 -43 96 -43t90 30.5t31 82.5v720h-138v248h138v125q0 202 102 321.5t272 119.5q131 0 281 -64l-59 -246q-78 33 -148 33z" />
    <glyph glyph-name="Oogonek" unicode="&#x1ea;" horiz-adv-x="1503" 
d="M493.5 417.5q94.5 -130.5 259.5 -130.5t258 131.5t93 310.5t-95 306.5t-258 127.5q-164 0 -258 -130t-94 -308q0 -177 94.5 -307.5zM655 -180q0 -78 133 -82l-63 -158q-123 16 -182.5 69.5t-59.5 121.5q0 119 164 225q-133 20 -242.5 89t-228.5 223.5t-119 420.5
q0 143 52.5 276.5t145.5 234.5t221 161.5t282 60.5t280.5 -63.5t218 -168t140.5 -237.5t49 -270t-47 -264t-132 -226.5t-203 -164t-257 -76.5q-152 -94 -152 -172z" />
    <glyph glyph-name="oogonek" unicode="&#x1eb;" horiz-adv-x="1251" 
d="M454.5 333q67.5 -77 171.5 -77t171 79t67 204t-67.5 201.5t-171.5 76.5t-171 -79t-67 -204q0 -124 67.5 -201zM606 -182q0 -76 133 -80l-63 -158q-123 16 -182.5 69.5t-59.5 121.5q0 113 144 211q-243 15 -385 175t-142 387t155.5 389.5t419 162.5t420 -164t156.5 -380
q0 -217 -118 -368t-322 -190q-156 -94 -156 -176z" />
    <glyph glyph-name="Aringacute" unicode="&#x1fa;" horiz-adv-x="1378" 
d="M690 1595q-35 0 -58.5 -19.5t-23.5 -50t23.5 -51t57.5 -20.5t58.5 19.5t24.5 51.5t-23.5 51t-58.5 19zM690 1098l-174 -541h342zM907 1526q0 -80 -59 -127l536 -1399h-356l-113 326h-452l-111 -326h-356l536 1399q-61 43 -61 118q0 137 150 169l88 194h297l-156 -233
q57 -41 57 -121z" />
    <glyph glyph-name="aringacute" unicode="&#x1fb;" horiz-adv-x="1208" 
d="M565 1399q-35 0 -58.5 -19.5t-23.5 -50.5t23.5 -51.5t57.5 -20.5t58.5 19.5t24.5 51.5t-23.5 51.5t-58.5 19.5zM346 1328q0 83 60.5 125t159 42t157.5 -42t59 -125t-59 -125t-157.5 -42t-159 42t-60.5 125zM659 1538l-208 57l106 267h297zM354 354q0 -62 45 -100.5
t107 -38.5q124 0 194 68q47 37 48 77v103q-94 35 -186 35q-91 0 -149.5 -41t-58.5 -103zM434 -20q-178 0 -283.5 98t-105.5 250t130 252t331 100q144 0 242 -45v49q0 186 -216 186q-159 0 -335 -118l-97 204q212 140 460 140t381.5 -115t133.5 -336v-276q0 -49 18.5 -68.5
t65.5 -24.5v-276q-75 -16 -162 -15q-168 2 -192 136l-6 49q-72 -92 -170.5 -141t-194.5 -49z" />
    <glyph glyph-name="AEacute" unicode="&#x1fc;" horiz-adv-x="2000" 
d="M922 621v458l-273 -458h273zM1915 1454v-295h-635v-272h524v-293h-524v-299h653v-295h-987v326h-440l-187 -326h-356l895 1454h1057zM1333 1550l-209 58l107 266h297z" />
    <glyph glyph-name="aeacute" unicode="&#x1fd;" horiz-adv-x="1925" 
d="M1306.5 860q-98.5 0 -161 -61.5t-72.5 -163.5h469q-10 102 -73.5 163.5t-162 61.5zM356 354q0 -62 45 -100.5t105 -38.5q123 0 194 68q47 37 50 75q-4 4 -5.5 19.5t-4.5 43t-3 46.5q-91 31 -178 31q-88 0 -145.5 -41t-57.5 -103zM1315 -20q-308 0 -469 215
q-104 -160 -240 -187.5t-202 -27.5q-147 0 -252 98t-105 250t130 252t329 100q124 0 231 -41l8 61q-8 170 -213 170q-161 0 -333 -118l-99 204q218 140 464 140t378 -131q155 131 371 131q266 0 420.5 -162t154.5 -397q0 -59 -8 -101h-801q8 -105 79.5 -163t155.5 -58
q85 0 150.5 35t87.5 94l279 -78q-63 -127 -196.5 -206.5t-319.5 -79.5zM1034 1171l-209 58l107 266h297z" />
    <glyph glyph-name="Oslashacute" unicode="&#x1fe;" horiz-adv-x="1507" 
d="M852 1550l-209 58l107 266h297zM739 1163q-73 0 -138.5 -38t-132.5 -130t-67 -270q0 -106 33 -193l432 611q-54 20 -127 20zM1106 738q0 91 -35 184l-436 -613q57 -23 133 -23t141.5 39.5t109.5 101.5t65.5 141t21.5 170zM1448 723q0 -143 -52.5 -276.5t-144.5 -234.5
t-220.5 -162.5t-284.5 -61.5t-289 69l-41 -57h-361l172 244q-168 214 -168 485q0 143 52.5 276.5t145.5 234.5t221 161.5t279 60.5t290 -67l40 59h363l-174 -244q172 -213 172 -487z" />
    <glyph glyph-name="oslashacute" unicode="&#x1ff;" horiz-adv-x="1247" 
d="M385 524q0 -74 33 -139l323 399q-55 33 -111 33t-100.5 -20.5t-76 -57.5t-50 -89t-18.5 -126zM612 256q115 0 182.5 79t67.5 186q0 106 -39 173l-325 -401q50 -37 114 -37zM717 1171l-209 58l106 266h297zM201 143q-152 160 -152 394t155.5 396.5t420.5 162.5
q166 0 305 -76l55 65h180l-127 -147q162 -162 162 -399t-154.5 -398t-420.5 -161q-184 0 -318 81l-61 -71h-178z" />
    <glyph glyph-name="uni0218" unicode="&#x218;" horiz-adv-x="1261" 
d="M625 1167q-179 0 -179 -120q0 -65 60.5 -96t204.5 -72q143 -40 227 -73.5t175 -110t91 -267.5q0 -230 -155.5 -337t-394.5 -107t-396.5 68.5t-220.5 111.5l147 293q10 -10 55.5 -39t162.5 -80t262 -51q178 0 178 108q0 41 -27 67.5t-74 48t-110 40t-151 45.5
q-196 60 -289 148.5t-93 248.5q0 221 154.5 347t396.5 126q243 0 510 -159l-145 -279q-30 30 -153.5 84.5t-235.5 54.5zM453 -283q78 0 77 56v131h267v-144q0 -107 -88 -139.5t-256 -32.5v129z" />
    <glyph glyph-name="uni0219" unicode="&#x219;" horiz-adv-x="1058" 
d="M383 778q0 -61 72.5 -81.5t160.5 -42.5q208 -53 304 -123t96 -216q0 -147 -123 -241t-335 -94t-348 53t-185 84l129 221q221 -127 399 -127q147 0 147 65.5t-51 89t-168 54.5q-235 62 -318 127t-83 184q0 164 127 264.5t331 100.5t447 -127l-129 -207q-193 106 -333 106
t-140 -90zM346 -283q78 0 78 56v131h266v-144q0 -107 -87.5 -139.5t-256.5 -32.5v129z" />
    <glyph glyph-name="uni021A" unicode="&#x21a;" horiz-adv-x="1273" 
d="M1247 1159h-442v-1159h-336v1159h-444v295h1222v-295zM436 -283q78 0 78 56v131h266v-144q0 -107 -87.5 -139.5t-256.5 -32.5v129z" />
    <glyph glyph-name="uni021B" unicode="&#x21b;" horiz-adv-x="821" 
d="M506 379q0 -100 106 -100q51 0 133 38l62 -260q-181 -77 -330 -77q-210 0 -254.5 104t-44.5 182v561h-137v248h137v342h328v-342h219v-248h-219v-448zM264 -283q78 0 78 56v131h266v-144q0 -107 -87.5 -139.5t-256.5 -32.5v129z" />
    <glyph glyph-name="dotlessj" unicode="&#x237;" 
d="M111 -18v1093h327v-1069q0 -187 -113 -303.5t-281 -116.5q-167 0 -288 103l138 223q37 -43 96 -43t90 30.5t31 82.5z" />
    <glyph glyph-name="schwa" unicode="&#x259;" horiz-adv-x="1239" 
d="M620.5 215q94.5 0 157 60.5t72.5 162.5h-465q10 -102 75.5 -162.5t160 -60.5zM39 512q0 86 8 127h795q-8 109 -79 164t-152 55t-146.5 -35t-87.5 -94l-279 80q61 125 194.5 206t295.5 81q286 0 444 -159.5t158 -396.5q0 -238 -154.5 -399t-420 -161t-382 121.5
t-155.5 223t-39 187.5z" />
    <glyph glyph-name="apostrophe" unicode="&#x2bc;" horiz-adv-x="778" 
d="M428 1171l-209 58l68 164l-17 102h355z" />
    <glyph glyph-name="circumflex" unicode="&#x2c6;" horiz-adv-x="786" 
d="M51 1274l225 221h236l223 -221l-168 -74l-174 129l-174 -129z" />
    <glyph glyph-name="caron" unicode="&#x2c7;" horiz-adv-x="786" 
d="M219 1495l174 -129l174 129l168 -76l-223 -219h-236l-225 219z" />
    <glyph glyph-name="breve" unicode="&#x2d8;" horiz-adv-x="710" 
d="M353 1337q48 0 84 44t42 114h170q0 -132 -82.5 -216.5t-211 -84.5t-212.5 84t-84 217h174q0 -66 36 -112t84 -46z" />
    <glyph glyph-name="dotaccent" unicode="&#x2d9;" horiz-adv-x="499" 
d="M102 1214v281h295v-281h-295z" />
    <glyph glyph-name="ring" unicode="&#x2da;" 
d="M274.5 1399q-34.5 0 -58 -19.5t-23.5 -50.5t23.5 -51.5t57.5 -20.5t58 19.5t24 51.5t-23.5 51.5t-58 19.5zM55 1328q0 83 60.5 125t159 42t158 -42t59.5 -125t-59.5 -125t-158 -42t-159 42t-60.5 125z" />
    <glyph glyph-name="ogonek" unicode="&#x2db;" horiz-adv-x="632" 
d="M313 -180q0 -76 133 -80l-63 -158q-123 16 -182.5 69.5t-59.5 123.5t64.5 141.5t193.5 130.5l82 -45q-168 -98 -168 -182z" />
    <glyph glyph-name="tilde" unicode="&#x2dc;" horiz-adv-x="921" 
d="M612 1204q-62 0 -97.5 14.5t-66 33t-59.5 32.5t-74 14t-65.5 -36t-20.5 -62h-176q0 23 13.5 71t67 134t179.5 86q69 0 124 -34t83.5 -49t64.5 -15q61 0 84 38.5t23 63.5h176q0 -16 -14 -63.5t-46 -98.5t-83 -90t-113 -39z" />
    <glyph glyph-name="hungarumlaut" unicode="&#x2dd;" horiz-adv-x="780" 
d="M575 1171l-157 58l90 266h246zM217 1171l-158 58l93 266h245z" />
    <glyph glyph-name="uni03BC" unicode="&#x3bc;" horiz-adv-x="1310" 
d="M111 -436v1511h327v-616q0 -203 158 -203q59 0 120.5 35t108.5 121v663h328v-706q0 -49 17.5 -68.5t64.5 -24.5v-276q-78 -16 -156 -16q-172 4 -196 137l-9 65q-25 -66 -117 -136t-169 -70t-116.5 31t-53.5 67l20 -514h-327z" />
    <glyph glyph-name="Ndotaccent" unicode="&#x1e44;" horiz-adv-x="1554" 
d="M475 0h-336v1454h262l678 -854v854h336v-1454h-270l-670 831v-831zM627 1591v281h295v-281h-295z" />
    <glyph glyph-name="ndotaccent" unicode="&#x1e45;" horiz-adv-x="1251" 
d="M1149 0h-328v604q0 106 -40 154.5t-105 48.5q-109 0 -166 -75t-72 -116v-616h-327v1075h295v-180q59 96 167.5 148.5t230.5 52.5t233.5 -65t111.5 -343v-688zM516 1214v281h295v-281h-295z" />
    <glyph glyph-name="Wgrave" unicode="&#x1e80;" horiz-adv-x="2162" 
d="M791 1876h296l107 -266l-207 -58zM623 1452h311l145 -465l150 465h309l-244 -676l148 -391l366 1069h365l-580 -1454h-282l-230 569l-231 -569h-281l-579 1454h362l369 -1069l143 391z" />
    <glyph glyph-name="wgrave" unicode="&#x1e81;" horiz-adv-x="1753" 
d="M588 1497h297l106 -266l-207 -57zM1446 1075h309l-444 -1075h-269l-165 442l-164 -442h-269l-444 1075h309l291 -772l100 293l-188 479h262l103 -323l104 323h262l-190 -479l102 -293z" />
    <glyph glyph-name="Wacute" unicode="&#x1e82;" horiz-adv-x="2162" 
d="M623 1452h311l145 -465l150 465h309l-244 -676l148 -391l366 1069h365l-580 -1454h-282l-230 569l-231 -569h-281l-579 1454h362l369 -1069l143 391zM1174 1550l-209 58l106 266h297z" />
    <glyph glyph-name="wacute" unicode="&#x1e83;" horiz-adv-x="1753" 
d="M1446 1075h309l-444 -1075h-269l-165 442l-164 -442h-269l-444 1075h309l291 -772l100 293l-188 479h262l103 -323l104 323h262l-190 -479l102 -293zM971 1171l-209 58l106 266h297z" />
    <glyph glyph-name="Wdieresis" unicode="&#x1e84;" horiz-adv-x="2162" 
d="M623 1452h311l145 -465l150 465h309l-244 -676l148 -391l366 1069h365l-580 -1454h-282l-230 569l-231 -569h-281l-579 1454h362l369 -1069l143 391zM1159 1595v265h271v-265h-271zM729 1595v265h270v-265h-270z" />
    <glyph glyph-name="wdieresis" unicode="&#x1e85;" horiz-adv-x="1753" 
d="M1446 1075h309l-444 -1075h-269l-165 442l-164 -442h-269l-444 1075h309l291 -772l100 293l-188 479h262l103 -323l104 323h262l-190 -479l102 -293zM956 1217v264h271v-264h-271zM526 1217v264h271v-264h-271z" />
    <glyph glyph-name="Etilde" unicode="&#x1ebc;" horiz-adv-x="1230" 
d="M802 1583q-62 0 -97 14.5t-66 33t-59.5 32.5t-74.5 14t-65.5 -36t-19.5 -62h-176q0 23 13 71t67.5 134t179.5 86q70 0 124 -34t82.5 -49t64.5 -15q60 0 84 38.5t24 63.5h176q0 -16 -14.5 -63.5t-46 -98.5t-83 -90t-113.5 -39zM1161 295v-295h-1022v1454h1004v-295h-668
v-282h574v-273h-574v-309h686z" />
    <glyph glyph-name="etilde" unicode="&#x1ebd;" horiz-adv-x="1236" 
d="M768 1204q-62 0 -97.5 14.5t-66.5 33t-59.5 32.5t-73.5 14t-65.5 -36t-20.5 -62h-176q0 23 13.5 71t67 134t179.5 86q70 0 124 -34t82.5 -49t64.5 -15q60 0 84 38.5t24 63.5h176q0 -16 -14.5 -63.5t-46 -98.5t-82.5 -90t-113 -39zM622 860q-95 0 -158 -60.5t-73 -160.5
h463q-10 102 -73.5 161.5t-158.5 59.5zM1200 564q0 -86 -8 -128h-795q8 -109 79 -165t152 -56t147.5 35t88.5 94l279 -78q-63 -127 -197 -206.5t-294 -79.5q-290 0 -446.5 159t-156.5 394t155 399t421 164t382.5 -122t154.5 -223t38 -187z" />
    <glyph glyph-name="Ygrave" unicode="&#x1ef2;" horiz-adv-x="1327" 
d="M373 1876h297l106 -266l-207 -58zM829 0h-335v500l-510 954h364l314 -668l319 668h365l-517 -958v-496z" />
    <glyph glyph-name="ygrave" unicode="&#x1ef3;" horiz-adv-x="1116" 
d="M291 1497h297l106 -266l-207 -57zM249 -188q60 0 94 42t56 146l-407 1075h336l252 -794l215 794h305l-412 -1249q-45 -135 -152.5 -216t-226.5 -82t-203 30v280q83 -26 143 -26z" />
    <glyph glyph-name="Ytilde" unicode="&#x1ef8;" horiz-adv-x="1327" 
d="M806 1583q-62 0 -98 14.5t-67 33t-59.5 32.5t-74.5 14t-65.5 -36t-19.5 -62h-176q0 23 13 71t67.5 134t179.5 86q70 0 124 -34t82.5 -49t64.5 -15q60 0 84 38.5t24 63.5h176q0 -16 -14.5 -63.5t-46 -98.5t-82 -90t-112.5 -39zM829 0h-335v500l-510 954h364l314 -668
l319 668h365l-517 -958v-496z" />
    <glyph glyph-name="ytilde" unicode="&#x1ef9;" horiz-adv-x="1116" 
d="M724 1204q-62 0 -98 14.5t-67 33t-59.5 32.5t-73.5 14t-65.5 -36t-20.5 -62h-176q0 23 13 71t67.5 134t179.5 86q70 0 124 -34t82.5 -49t64.5 -15q60 0 84 38.5t24 63.5h176q0 -16 -14.5 -63.5t-46 -98.5t-82 -90t-112.5 -39zM249 -188q60 0 94 42t56 146l-407 1075h336
l252 -794l215 794h305l-412 -1249q-45 -135 -152.5 -216t-226.5 -82t-203 30v280q83 -26 143 -26z" />
    <glyph glyph-name="endash" unicode="&#x2013;" horiz-adv-x="1259" 
d="M111 416v295h1038v-295h-1038z" />
    <glyph glyph-name="emdash" unicode="&#x2014;" horiz-adv-x="1918" 
d="M111 416v295h1697v-295h-1697z" />
    <glyph glyph-name="quoteleft" unicode="&#x2018;" horiz-adv-x="532" 
d="M430 975q-220 0 -282 84t-62 155v281h266v-217q3 -37 28 -54.5t50 -17.5v-231z" />
    <glyph glyph-name="quoteright" unicode="&#x2019;" horiz-adv-x="538" 
d="M84 1495q221 0 282.5 -85t61.5 -155v-280h-266v217q-3 37 -28 54.5t-50 17.5v231z" />
    <glyph glyph-name="quotesinglbase" unicode="&#x201a;" horiz-adv-x="509" 
d="M47 -39q42 0 59 23.5t19 48.5v301h266v-363q0 -128 -104 -184.5t-240 -56.5v231z" />
    <glyph glyph-name="quotedblleft" unicode="&#x201c;" horiz-adv-x="980" 
d="M879 975q-222 0 -283 84t-61 155v281h266v-217q3 -38 28 -55t50 -17v-231zM430 975q-220 0 -282 84t-62 155v281h266v-217q3 -37 28 -54.5t50 -17.5v-231z" />
    <glyph glyph-name="quotedblright" unicode="&#x201d;" horiz-adv-x="987" 
d="M532 1495q222 0 283.5 -85t61.5 -155v-280h-267v217q-3 38 -28 55t-50 17v231zM84 1495q221 0 282.5 -85t61.5 -155v-280h-266v217q-3 37 -28 54.5t-50 17.5v231z" />
    <glyph glyph-name="quotedblbase" unicode="&#x201e;" horiz-adv-x="933" 
d="M473 -39q42 0 59 23.5t19 48.5v301h266v-363q0 -128 -104 -184.5t-240 -56.5v231zM47 -39q42 0 59 23.5t19 48.5v301h266v-363q0 -128 -104 -184.5t-240 -56.5v231z" />
    <glyph glyph-name="dagger" unicode="&#x2020;" horiz-adv-x="995" 
d="M342 -266v674h-270v294h270v885h311v-885h269v-294h-269v-674h-311z" />
    <glyph glyph-name="daggerdbl" unicode="&#x2021;" horiz-adv-x="1017" 
d="M354 -266v428h-270v295h270v229h-270v295h270v606h312v-606h268v-295h-268v-229h268v-295h-268v-428h-312z" />
    <glyph glyph-name="bullet" unicode="&#x2022;" horiz-adv-x="749" 
d="M215 559q-65 65 -65 159t67 160t158.5 66t158 -66.5t66.5 -159.5t-64.5 -158.5t-160 -65.5t-160.5 65z" />
    <glyph glyph-name="ellipsis" unicode="&#x2026;" horiz-adv-x="1345" 
d="M969 0v334h266v-334h-266zM539 0v334h268v-334h-268zM111 0v334h266v-334h-266z" />
    <glyph glyph-name="perthousand" unicode="&#x2030;" horiz-adv-x="2482" 
d="M221 115l578 663l524 695l147 -132l-559 -647l-544 -712zM2066.5 139q51.5 0 87 46t35.5 111t-36.5 111t-86.5 46t-86 -46.5t-36 -112t35.5 -110.5t87 -45zM2066.5 -20q-73.5 0 -137 24.5t-112 67.5t-75 100t-26.5 122.5t26.5 124t75 101.5t112 67.5t137 24.5t137 -24.5
t111.5 -67.5t75 -101.5t27 -124t-27 -122.5t-75 -100t-111.5 -67.5t-137 -24.5zM1261.5 139q51.5 0 88 46t36.5 111t-36.5 111t-88 46t-87 -46.5t-35.5 -112t35.5 -110.5t87 -45zM1261.5 -20q-73.5 0 -137 24.5t-110.5 67.5t-75 100t-28 122.5t28 124t75 101.5t110.5 67.5
t137 24.5t137 -24.5t112 -67.5t75 -101.5t26.5 -124t-26.5 -122.5t-75 -100t-112 -67.5t-137 -24.5zM431 1001q50 0 87 46.5t37 112t-37 110.5t-88 45t-87 -46t-36 -111t37 -111t87 -46zM430 842q-74 0 -137.5 24.5t-110.5 67.5t-74.5 101.5t-27.5 124t27.5 122.5t74.5 100
t110.5 68t137.5 25t137.5 -25t111.5 -68t74.5 -100t26.5 -122.5t-26.5 -124t-74.5 -101.5t-111.5 -67.5t-137.5 -24.5z" />
    <glyph glyph-name="guilsinglleft" unicode="&#x2039;" horiz-adv-x="733" 
d="M70 600l551 395v-264l-293 -201l293 -186v-264l-551 364v156z" />
    <glyph glyph-name="guilsinglright" unicode="&#x203a;" horiz-adv-x="733" 
d="M664 444l-553 -364v264l295 186l-295 201v264l553 -395v-156z" />
    <glyph glyph-name="fraction" unicode="&#x2044;" horiz-adv-x="448" 
d="M-399 115l577 663l524 695l148 -132l-559 -647l-545 -712z" />
    <glyph glyph-name="zerosuperior" unicode="&#x2070;" horiz-adv-x="1021" 
d="M325 870.5q69 -77.5 191 -77.5t186 82t64 176t-68.5 174t-188.5 80t-186.5 -81.5t-66.5 -178.5t69 -174.5zM508 602q-108 0 -192.5 42t-140.5 106.5t-85 144.5t-29 157q0 169 126.5 306t329.5 137t324.5 -142.5t121.5 -308.5q0 -76 -32 -155.5t-90.5 -143t-141.5 -103.5
t-191 -40z" />
    <glyph glyph-name="foursuperior" unicode="&#x2074;" horiz-adv-x="860" 
d="M496 983v283l-275 -283h275zM487 616v181h-446v186l506 514h131v-514h127v-186h-127v-181h-191z" />
    <glyph glyph-name="fivesuperior" unicode="&#x2075;" horiz-adv-x="825" 
d="M424 1188q156 0 253 -80.5t97 -208.5t-110.5 -212.5t-276.5 -84.5q-111 0 -202 39t-138 107l111 129q91 -91 203 -91t165.5 31t53.5 96t-49.5 99.5t-106.5 34.5t-109.5 -25t-74.5 -66h-166q18 93 57.5 253t63.5 288h510v-190h-373l-43 -146q55 27 135 27z" />
    <glyph glyph-name="sixsuperior" unicode="&#x2076;" horiz-adv-x="886" 
d="M472 770q62 0 119.5 39t57.5 92t-58.5 90t-119.5 37t-98 -10t-64.5 -26.5t-43 -40t-15.5 -50.5t16.5 -50.5t44 -41.5t63.5 -28.5t98 -10.5zM242 1130q64 64 227 64q150 0 255 -83.5t105 -211.5t-110 -216.5t-279 -88.5q-170 0 -272 110.5t-102 325.5t108.5 340t306.5 125
t307 -127l-108 -133q-74 78 -215 78q-100 0 -159.5 -47t-63.5 -136z" />
    <glyph glyph-name="sevensuperior" unicode="&#x2077;" horiz-adv-x="817" 
d="M47 1307v190h780l-518 -881h-217l436 691h-481z" />
    <glyph glyph-name="eightsuperior" unicode="&#x2078;" horiz-adv-x="880" 
d="M285 1232q0 -36 49 -56.5t104.5 -20.5t105.5 20.5t50 57.5t-47 57.5t-108.5 20.5t-107.5 -21.5t-46 -57.5zM570 970q-55 29 -131 29q-75 0 -130 -27.5t-55 -72.5t56 -75.5t110.5 -30.5t88.5 7t75 30.5t41 66.5q0 44 -55 73zM649 1085q168 -81 168 -199
q0 -125 -110.5 -204.5t-267.5 -79.5t-267.5 80.5t-110.5 198.5q0 80 50.5 126t117.5 78q-135 59 -135 164q0 106 109 176t236.5 70t236 -68t108.5 -174q0 -59 -38.5 -102t-96.5 -66z" />
    <glyph glyph-name="ninesuperior" unicode="&#x2079;" horiz-adv-x="886" 
d="M240 1189q0 -54 58 -91t140 -37t140.5 37t58.5 90t-60 92t-139 39t-138.5 -38t-59.5 -92zM645 958q-63 -63 -229 -63q-149 0 -254 84t-105 210q0 127 108.5 216.5t279.5 89.5t273.5 -110.5t102.5 -325.5t-107.5 -340t-305.5 -125t-310 129l109 131q76 -80 215 -80
q100 0 160.5 49t62.5 135z" />
    <glyph glyph-name="zeroinferior" unicode="&#x2080;" horiz-adv-x="1021" 
d="M324.5 256q68.5 -78 190.5 -78t186.5 82t64.5 176t-68 174t-189 80t-187 -82t-66 -178t68.5 -174zM61 437q0 169 126.5 306.5t329.5 137.5t324.5 -142.5t121.5 -308.5t-127.5 -304t-327.5 -138q-204 0 -325.5 140t-121.5 309z" />
    <glyph glyph-name="oneinferior" unicode="&#x2081;" horiz-adv-x="716" 
d="M680 186v-186h-584v186h205v498q-26 -30 -103 -68t-135 -38v190q61 0 126 40t88.5 59.5t23.5 21.5h193v-703h186z" />
    <glyph glyph-name="twoinferior" unicode="&#x2082;" horiz-adv-x="888" 
d="M596 608q0 97 -155 97t-257 -97l-121 142q39 49 141.5 95t265.5 46t252 -74t89 -211q0 -173 -111.5 -220.5t-150.5 -59.5q-176 -51 -176 -140h440v-186h-756q0 172 59.5 262.5t213.5 155.5q49 20 157.5 62.5t108.5 127.5z" />
    <glyph glyph-name="threeinferior" unicode="&#x2083;" horiz-adv-x="849" 
d="M403 715q-139 0 -229 -97l-121 156q103 119 348 119q156 0 259.5 -69.5t103.5 -172.5q0 -72 -53.5 -119t-145.5 -63q102 -14 160.5 -78.5t58.5 -140.5q0 -134 -112.5 -198t-259.5 -64q-289 0 -359 155l103 144q14 -29 76.5 -68t151.5 -39q206 0 206 90q0 101 -303 101
h-51v174h49q274 0 274 94q0 57 -65.5 66.5t-90.5 9.5z" />
    <glyph glyph-name="fourinferior" unicode="&#x2084;" horiz-adv-x="860" 
d="M496 369v282l-275 -282h275zM487 2v180h-446v187l506 514h131v-514h127v-187h-127v-180h-191z" />
    <glyph glyph-name="fiveinferior" unicode="&#x2085;" horiz-adv-x="825" 
d="M420 573q156 0 254 -79.5t98 -208.5t-110.5 -213t-276.5 -84q-111 0 -202 39t-138 104l111 131q90 -90 202.5 -90t166 30.5t53.5 95.5t-49 99.5t-106 34.5q-58 0 -110.5 -24.5t-74.5 -65.5h-166q18 93 58.5 256t62.5 285h509v-191h-372l-43 -145q51 26 133 26z" />
    <glyph glyph-name="sixinferior" unicode="&#x2086;" horiz-adv-x="886" 
d="M591 203q58 39 58 92t-58.5 90t-119.5 37t-98 -10.5t-64.5 -26.5t-43 -39.5t-15.5 -50.5t16.5 -50.5t59 -52t125 -28.5t140.5 39zM242 524q64 64 227 64q150 0 255 -83.5t105 -211.5t-110 -216.5t-279 -88.5q-170 0 -272 109.5t-102 325.5t108.5 341t303.5 125t310 -127
l-108 -133q-74 78 -215 78q-100 0 -159.5 -47.5t-63.5 -135.5z" />
    <glyph glyph-name="seveninferior" unicode="&#x2087;" horiz-adv-x="819" 
d="M49 692v191h778l-518 -881h-215l436 690h-481z" />
    <glyph glyph-name="eightinferior" unicode="&#x2088;" horiz-adv-x="880" 
d="M285 617q0 -36 49 -56t104.5 -20t105.5 20.5t50 56.5t-47 57t-108.5 21t-107.5 -21.5t-46 -57.5zM570 356q-55 29 -131 29q-75 0 -130 -27.5t-55 -73.5t57 -76t110.5 -30t87.5 7.5t75 30t41 66.5q0 45 -55 74zM649 471q168 -83 168 -201q0 -125 -111 -203.5t-267 -78.5
t-267 79.5t-111 198.5q0 80 50.5 126t117.5 79q-135 59 -135 164t108.5 175.5t237 70.5t236.5 -69t108 -173q0 -59 -38.5 -102t-96.5 -66z" />
    <glyph glyph-name="nineinferior" unicode="&#x2089;" horiz-adv-x="886" 
d="M240 581q0 -54 58 -90t140 -36t140.5 35.5t58.5 88.5t-59.5 93.5t-139.5 40.5t-139 -39t-59 -93zM645 352q-61 -65 -229 -65q-149 0 -254 84t-105 212t110.5 217t279.5 89t271.5 -110.5t102.5 -325.5t-107.5 -340t-304.5 -125t-311 127l109 133q76 -80 215 -80
q100 0 160.5 48t62.5 136z" />
    <glyph glyph-name="Euro" unicode="&#x20ac;" horiz-adv-x="1579" 
d="M1219 965q-80 198 -317 198q-111 0 -191 -73.5t-115 -178.5h465l-72 -176h-422q0 -55 6 -98h426l-71 -176h-291q105 -174 285 -174q91 0 151 34.5t92.5 72.5t53.5 93l276 -161q-65 -156 -232.5 -247t-367.5 -91t-371 134.5t-245 338.5h-209l71 176h90q-6 49 -6 98h-141
l72 176h90q54 236 235.5 393.5t444.5 157.5q195 0 338 -88t213 -229z" />
    <glyph glyph-name="trademark" unicode="&#x2122;" horiz-adv-x="1773" 
d="M1636 1454v-620h-209v356l-116 -270h-170l-117 270v-356h-209v620h313l97 -297l98 297h313zM721 1249h-195v-415h-209v415h-194v209h598v-209z" />
    <glyph glyph-name="onethird" unicode="&#x2153;" horiz-adv-x="2039" 
d="M299 115l578 663l524 695l147 -132l-559 -647l-545 -712zM614 797v-189h-493v189h158v497q-21 -29 -82.5 -67.5t-108.5 -38.5v190q50 0 102 40t70.5 58.5t18.5 20.5h194v-700h141zM1583 715q-139 0 -229 -97l-121 156q103 119 348 119q156 0 259.5 -70t103.5 -172
q0 -72 -53.5 -119t-145.5 -63q102 -14 160.5 -78.5t58.5 -140.5q0 -133 -112.5 -197.5t-258.5 -64.5q-289 0 -360 155l102 144q15 -29 78 -68t151 -39q205 0 205 90q0 101 -303 101h-51v174h49q275 0 275 94q0 57 -65.5 66.5t-90.5 9.5z" />
    <glyph glyph-name="twothirds" unicode="&#x2154;" horiz-adv-x="2072" 
d="M412 115l577 663l524 695l148 -132l-559 -647l-545 -712zM584 1212q0 97 -143 97t-238 -95l-113 140q43 59 144 100t243 41t225.5 -73.5t83.5 -201.5t-70.5 -192t-174.5 -98q-164 -51 -164 -139h381v-187h-672q0 171 54.5 262.5t197.5 155.5q45 20 145.5 62.5
t100.5 127.5zM1616 715q-140 0 -230 -97l-120 156q103 119 348 119q156 0 259 -69.5t103 -172.5q0 -72 -53 -119t-145 -63q102 -14 160.5 -78.5t58.5 -140.5q0 -133 -112.5 -197.5t-258.5 -64.5q-291 0 -360 155l102 144q14 -29 76.5 -68t152.5 -39q205 0 205 90
q0 101 -303 101h-51v174h49q275 0 275 94q0 57 -66 66.5t-90 9.5z" />
    <glyph glyph-name="oneeighth" unicode="&#x215b;" horiz-adv-x="2029" 
d="M324 115l577 663l524 695l148 -132l-559 -647l-545 -712zM614 797v-189h-493v189h158v497q-21 -29 -82.5 -67.5t-108.5 -38.5v190q50 0 102 40t70.5 58.5t18.5 20.5h194v-700h141zM1423 617q0 -36 49.5 -56t104.5 -20t105.5 20.5t50.5 56.5t-47.5 57t-108.5 21
t-107.5 -21.5t-46.5 -57.5zM1763 284q0 43 -55.5 72t-129.5 29q-75 0 -130 -27.5t-55 -73.5t73.5 -84.5t185 -13.5t111.5 98zM1788 471q168 -83 168 -201q0 -124 -110.5 -203t-267.5 -79q-156 0 -267 79.5t-111 198.5q0 80 50 126t118 79q-135 59 -135 164t108.5 175.5
t236.5 70.5t236.5 -69t108.5 -173q0 -59 -39 -102t-96 -66z" />
    <glyph glyph-name="threeeighths" unicode="&#x215c;" horiz-adv-x="2058" 
d="M406 115l577 663l524 695l148 -132l-559 -647l-545 -712zM1454 617q0 -36 49 -56t104.5 -20t105.5 20.5t50 56.5t-47 57t-108.5 21t-107.5 -21.5t-46 -57.5zM1739 356q-55 29 -130 29t-130.5 -27.5t-55.5 -73.5t57 -76t111 -30t87.5 7.5t74.5 30t41 66.5q0 45 -55 74z
M1819 471q168 -83 168 -201q0 -124 -110.5 -203t-266.5 -79t-267.5 79t-111.5 199q0 80 50 126t118 79q-135 59 -135 164t108 175.5t236.5 70.5t237 -69.5t108.5 -172.5q0 -59 -39 -102t-96 -66zM432 1321q-137 0 -229 -96l-121 153q103 119 348 119q156 0 259.5 -70
t103.5 -172q0 -72 -53.5 -118.5t-145.5 -63.5q102 -14 160.5 -77.5t58.5 -140.5q0 -135 -113.5 -199t-259.5 -64q-288 0 -358 156l102 143q15 -29 78 -68t151 -39q205 0 205 90q0 101 -303 101h-51v174h49q275 0 275 96q0 36 -47.5 56t-108.5 20z" />
    <glyph glyph-name="fiveeighths" unicode="&#x215d;" horiz-adv-x="2095" 
d="M412 115l577 663l524 695l148 -132l-559 -647l-545 -712zM446 1188q155 0 253 -81t98 -208t-110.5 -212t-276.5 -85q-111 0 -202 39t-138 107l110 129q91 -91 203.5 -91t165.5 31t53 96t-49.5 99.5t-106.5 34.5t-109 -25t-75 -66h-166q18 93 61 267t60 274h510v-190h-373
l-43 -146q54 27 135 27zM1489 617q0 -36 49 -56t104.5 -20t105.5 20.5t50 56.5t-47 57t-108.5 21t-107.5 -21.5t-46 -57.5zM1774 356q-55 29 -131 29q-75 0 -130 -27.5t-55 -73.5t57 -76t110.5 -30t87.5 7.5t75 30t41 66.5q0 45 -55 74zM1853 471q168 -83 168 -201
q0 -125 -110 -203.5t-267 -78.5t-267.5 79t-110.5 199q0 80 50 126t118 79q-136 59 -136 164t108.5 175.5t237 70.5t237 -69.5t108.5 -172.5q0 -59 -39 -102t-97 -66z" />
    <glyph glyph-name="seveneighths" unicode="&#x215e;" horiz-adv-x="1966" 
d="M84 1307v190h780l-518 -881h-217l436 691h-481zM215 115l578 663l524 695l147 -132l-559 -647l-545 -712zM1362 617q0 -36 49 -56t104.5 -20t105.5 20.5t50 56.5t-47 57t-108.5 21t-107.5 -21.5t-46 -57.5zM1647 356q-55 29 -130 29t-130.5 -27.5t-55.5 -73.5t57 -76
t110.5 -30t87.5 7.5t75 30t41 66.5q0 45 -55 74zM1726 471q168 -83 168 -201q0 -125 -110 -203.5t-267 -78.5t-267.5 79t-110.5 199q0 80 50 126t118 79q-136 59 -136 164t108.5 175.5t237 70.5t237 -69.5t108.5 -172.5q0 -59 -39 -102t-97 -66z" />
    <glyph glyph-name="minus" unicode="&#x2212;" horiz-adv-x="1067" 
d="M121 567v260h827v-260h-827z" />
    <glyph glyph-name="uni2215" unicode="&#x2215;" horiz-adv-x="1290" 
d="M-37 137l1178 1336l184 -154l-1175 -1337z" />
    <glyph glyph-name="uni2219" unicode="&#x2219;" horiz-adv-x="487" 
d="M111 492v339h266v-339h-266z" />
    <glyph glyph-name="commaaccent" unicode="&#xf6c3;" horiz-adv-x="450" 
d="M57 -283q78 0 78 56v131h266v-144q0 -107 -87.5 -139.5t-256.5 -32.5v129z" />
    <glyph glyph-name="s_t" unicode="&#xfb06;" horiz-adv-x="1814" 
d="M1499 379q0 -100 104 -100q51 0 136 38l61 -260q-181 -77 -330 -77q-208 0 -253.5 104t-45.5 182v561h-137v248h137q0 163 -21.5 209.5t-50 62t-73.5 15.5q-92 0 -136 -49t-44 -117t28.5 -128t59.5 -95l-123 -207q-172 102 -308 102t-136 -96q0 -53 53.5 -73.5
t155.5 -41.5q219 -45 310 -115.5t91 -205.5q0 -171 -119 -263.5t-316 -92.5t-330.5 53t-178.5 82l121 223q212 -127 368 -127t156 88q0 47 -48 69t-157 48q-220 54 -307.5 118t-87.5 193q0 170 120.5 269.5t283.5 99.5t274 -64q-45 76 -45 155q0 149 98 232.5t299 83.5
q249 0 310 -83t71 -162.5t10 -182.5h219v-248h-219v-448z" />
    <glyph glyph-name="NULL" horiz-adv-x="0" 
 />
    <glyph glyph-name="B.sc" horiz-adv-x="1234" 
d="M705 698q122 0 122 103q0 53 -32.5 76.5t-79.5 23.5h-295v-203h285zM874 355q0 48 -33.5 80t-84.5 32h-336v-219h323q53 0 92 29.5t39 77.5zM938 592q236 -62 236 -308q0 -132 -120 -208t-311 -76h-618v1153h706q129 0 208 -91t79 -189q0 -97 -45 -171.5t-135 -109.5z
" />
    <glyph glyph-name="C.sc" horiz-adv-x="1218" 
d="M57 584q0 227 170 401t449 174q174 0 301 -68.5t186 -183.5l-225 -159q-69 149 -268 149q-151 0 -232.5 -96.5t-81.5 -226.5t87.5 -226t225.5 -96t194.5 54t74.5 95l242 -143q-53 -122 -203 -195t-298 -73t-260 51t-192 136t-125 192t-45 215z" />
    <glyph glyph-name="A.sc" horiz-adv-x="1220" 
d="M610 797l-139 -299h274zM-6 0l498 1153h239l494 -1153h-312l-102 242h-403l-99 -242h-315z" />
    <glyph glyph-name="D.sc" horiz-adv-x="1308" 
d="M606 897h-186v-641h186q159 0 250.5 89.5t91.5 232.5t-90 231t-252 88zM125 0v1153h481q305 0 473 -162.5t168 -418.5t-175.5 -414t-465.5 -158h-481z" />
    <glyph glyph-name="E.sc" horiz-adv-x="1103" 
d="M1030 256v-256h-905v1153h889v-256h-594v-190h512v-240h-512v-211h610z" />
    <glyph glyph-name="F.sc" horiz-adv-x="1036" 
d="M125 0v1153h874v-256h-579v-217h479v-240h-479v-440h-295z" />
    <glyph glyph-name="G.alt" horiz-adv-x="1468" 
d="M57 734q0 142 49.5 273.5t141.5 232.5t224 162.5t308 61.5t319.5 -78.5t225.5 -222.5l-266 -209q-63 127 -151 169t-166 42t-145 -37.5t-133.5 -130.5t-66.5 -267t90.5 -307.5t260.5 -133.5q109 0 198 62t117 145h-277v295h641v-25l-2 -109v-24q-8 -274 -186.5 -458.5
t-458.5 -184.5q-160 0 -293 62.5t-228 166t-148.5 238.5t-53.5 277z" />
    <glyph glyph-name="G.sc" horiz-adv-x="1275" 
d="M57 586q0 238 176 406.5t435 168.5q168 0 293.5 -67.5t189.5 -184.5l-221 -166q-39 72 -114 114t-151 42q-140 0 -224.5 -90.5t-84.5 -231.5t87 -232t234 -91q148 0 273 133v10h-245v211h491v-608h-246v102q-131 -110 -307 -110q-121 0 -227.5 48t-232.5 178t-126 368z
" />
    <glyph glyph-name="H.sc" horiz-adv-x="1357" 
d="M1233 1153v-1153h-295v461h-518v-461h-295v1153h295v-434h518v434h295z" />
    <glyph glyph-name="I.sc" horiz-adv-x="544" 
d="M125 0v1153h295v-1153h-295z" />
    <glyph glyph-name="J.sc" horiz-adv-x="913" 
d="M296 244q132 0 171 69.5t39 253.5v586h293v-586q0 -133 -15.5 -240.5t-94.5 -226t-388 -118.5q-162 0 -281 71l66 240q18 -10 77.5 -29.5t132.5 -19.5z" />
    <glyph glyph-name="K.sc" horiz-adv-x="1243" 
d="M125 0v1153h295v-494l502 494h305l-484 -514l514 -639h-309l-379 473l-149 -129v-344h-295z" />
    <glyph glyph-name="L.sc" horiz-adv-x="997" 
d="M125 0v1153h295v-897h549v-256h-844z" />
    <glyph glyph-name="caron.alt" horiz-adv-x="550" 
d="M303 1171l-209 58l107 266h297z" />
    <glyph glyph-name="M.sc" horiz-adv-x="1562" 
d="M1143 0v643l-283 -459h-158l-282 459v-643h-295v1153h321l336 -569l338 569h318v-1153h-295z" />
    <glyph glyph-name="N.sc" horiz-adv-x="1380" 
d="M420 0h-295v1153h231l605 -627v627h292v-1153h-235l-598 608v-608z" />
    <glyph glyph-name="O.sc" horiz-adv-x="1341" 
d="M902.5 349.5q82.5 97.5 82.5 228.5t-85.5 225t-230.5 94t-229 -94.5t-84 -226.5t85 -228t232 -96t229.5 97.5zM669 -10q-136 0 -249 50t-194 132t-125 188.5t-44 219.5t46.5 218t128 185t195.5 128t249 48t247.5 -50t236.5 -178.5t124 -359.5q0 -113 -46 -218t-127 -186
t-193.5 -129t-248.5 -48z" />
    <glyph glyph-name="P.sc" horiz-adv-x="1132" 
d="M420 618h246q53 0 92 33t39 108t-44 106.5t-96 31.5h-237v-279zM125 0v1153h551q176 0 298 -122t122 -276t-115.5 -274.5t-296.5 -120.5h-264v-360h-295z" />
    <glyph glyph-name="Q.sc" horiz-adv-x="1345" 
d="M985 561q0 147 -85 242.5t-231 95.5t-229.5 -96t-83.5 -228t84 -226.5t224 -94.5q70 0 122 18l-192 201h278l68 -70q45 80 45 158zM57 580q0 113 46.5 218t128 186t195.5 129t249 48t247.5 -51t236.5 -179.5t124 -350.5q0 -221 -145 -383l190 -197h-278l-70 72
q-139 -80 -294 -80q-154 0 -267 50t-194 132t-125 187.5t-44 218.5z" />
    <glyph glyph-name="R.sc" horiz-adv-x="1239" 
d="M420 618h276q53 0 91 37t38 102.5t-43 102.5t-96 37h-266v-279zM125 0v1153h580q173 0 296 -119.5t123 -275.5q0 -104 -56 -192.5t-155 -139.5l297 -426h-333l-259 360h-198v-360h-295z" />
    <glyph glyph-name="S.sc" horiz-adv-x="1101" 
d="M547 901q-147 0 -148 -74q0 -44 49.5 -65t97.5 -34t122 -34q193 -54 284.5 -126t91.5 -222q0 -190 -134 -275t-335 -85q-139 0 -280 37.5t-252 101.5l129 256q31 -35 154.5 -83t260.5 -48q138 0 138 69q0 49 -61.5 72t-225.5 62t-254 120.5t-90 214.5q0 177 133.5 276
t339.5 99t437 -127l-127 -243q-68 57 -171.5 82.5t-158.5 25.5z" />
    <glyph glyph-name="T.sc" horiz-adv-x="1144" 
d="M1112 897h-391v-897h-295v897h-395v256h1081v-256z" />
    <glyph glyph-name="U.sc" horiz-adv-x="1331" 
d="M665 252q139 0 202 88.5t63 220.5v592h295v-592q0 -253 -140.5 -412t-421.5 -159t-420 161t-139 410v592h295v-592q0 -213 95.5 -261t170.5 -48z" />
    <glyph glyph-name="V.sc" horiz-adv-x="1224" 
d="M307 1153l305 -737l303 737h312l-492 -1153h-246l-495 1153h313z" />
    <glyph glyph-name="W.alt" horiz-adv-x="2289" 
d="M2290 1456l-453 -1454h-348l-346 903l-340 -905h-348l-453 1454h381l279 -948l299 948h364l305 -946l277 948h383z" />
    <glyph glyph-name="W.sc" horiz-adv-x="1925" 
d="M559 1151h270l132 -360l133 360h272l-217 -543l119 -254l340 799h321l-516 -1153h-246l-204 430l-205 -430h-248l-516 1153h319l344 -799l115 254z" />
    <glyph glyph-name="X.sc" horiz-adv-x="1200" 
d="M317 1153l283 -379l283 379h319l-446 -584l432 -569h-318l-270 362l-268 -362h-320l432 569l-446 584h319z" />
    <glyph glyph-name="Y.sc" horiz-adv-x="1179" 
d="M737 0h-295v389l-452 764h319l281 -512l284 512h320l-457 -766v-387z" />
    <glyph glyph-name="Z.sc" horiz-adv-x="1155" 
d="M86 897v256h991v-219l-645 -678h653v-256h-1024v219l674 678h-649z" />
    <glyph glyph-name="a.alt" horiz-adv-x="1310" 
d="M644 817q-116 0 -185.5 -85t-69.5 -201t73.5 -195.5t182.5 -79.5q139 0 227 150v223q-33 86 -97.5 137t-130.5 51zM872 160q-100 -180 -319 -180t-360.5 159t-141.5 398q0 238 136 398.5t339 160.5q115 0 206 -53.5t140 -143.5v162h328v-1061h-328v160z" />
    <glyph glyph-name="a.alt2" horiz-adv-x="1173" 
d="M354 356q0 -64 46 -102.5t104 -38.5q123 0 196 68q47 37 48 77v103q-204 76 -299 16.5t-95 -123.5zM563 1096q248 0 380 -117t132 -334v-645h-315v141q-115 -161 -342 -161q-162 0 -267.5 98t-105.5 252t133 252t306 98q172 0 264 -45v49q0 186 -216 186
q-159 0 -335 -118l-97 204q215 140 463 140z" />
    <glyph glyph-name="c_t" horiz-adv-x="1990" 
d="M1675 379q0 -100 105 -100q51 0 135 38l61 -260q-181 -77 -329 -77q-210 0 -254.5 104t-44.5 182v561h-138v248h138q0 151 -22.5 201.5t-54.5 68t-83 17.5q-92 0 -129 -53.5t-37 -115.5t12.5 -115.5t28.5 -102.5t35.5 -92t31.5 -72l-319 -96q-66 102 -179 102t-180 -79
t-67 -202t69 -201.5t171 -78.5q57 0 109 27.5t79 78.5l320 -98q-61 -129 -192 -206.5t-291 -77.5q-287 0 -444 163t-157 395t155.5 395t430.5 163q98 0 163.5 -20.5t131.5 -59.5q-43 108 -43 180q0 147 100 227t299 80q257 0 317 -99t66 -176t6 -153h219v-248h-219v-448z
" />
    <glyph glyph-name="d.alt" horiz-adv-x="1308" 
d="M639 817q-111 0 -180.5 -83.5t-69.5 -201.5t72.5 -197t183.5 -79q72 0 133.5 40t93.5 110v225q-33 84 -101.5 135t-131.5 51zM872 0v156q-100 -176 -318 -176t-360.5 160.5t-142.5 398.5t135 397.5t338 159.5q115 0 205 -53.5t141 -143.5v596h328v-1495h-326z" />
    <glyph glyph-name="eight.lnum" horiz-adv-x="1245" 
d="M461 1041q0 -48 14 -74.5t37 -44t52.5 -26.5t76.5 -9t96 38.5t49 101.5q0 62 -48 100t-116 38t-114.5 -38t-46.5 -86zM621 641q-84 0 -143.5 -49t-59.5 -130t60 -132t146 -51q85 0 144 51.5t59 133.5t-61 129.5t-145 47.5zM956 776q205 -127 205 -332t-156 -333.5
t-382 -128.5t-382.5 131t-156.5 333t205 330q-68 37 -115 108.5t-47 161.5t46 169t117.5 131.5t160 80t224.5 27.5t289.5 -113t153.5 -301q0 -80 -44.5 -151t-117.5 -113z" />
    <glyph glyph-name="five.lnum" horiz-adv-x="1173" 
d="M611 946q214 0 349.5 -131t135.5 -344t-153.5 -351t-395.5 -138q-160 0 -286 63.5t-193 177.5l182 203q59 -72 139 -115t168 -43t145.5 54.5t57.5 144.5t-53.5 144.5t-137.5 54.5q-119 0 -180 -95h-283q0 16 168 885h723v-299h-485l-41 -248q31 37 140 37z" />
    <glyph glyph-name="four.lnum" horiz-adv-x="1208" 
d="M662 600v365l-285 -365h285zM625 2v305h-574v293l676 856h225v-856h181v-293h-181v-305h-327z" />
    <glyph glyph-name="j.alt" 
d="M111 1491h325v-293h-325v293zM111 1059h327v-1495h-327v1495z" />
    <glyph glyph-name="l.alt" horiz-adv-x="555" 
d="M115 1495h327v-1495h-327v1495z" />
    <glyph glyph-name="nine.lnum" horiz-adv-x="1243" 
d="M457 799q66 -64 158 -64t158.5 63.5t66.5 158.5t-67.5 164t-158.5 69t-157 -68t-66 -163.5t66 -159.5zM588 475q-216 0 -363 138t-147 348q0 209 154.5 357t395.5 148q242 0 385.5 -182t143.5 -534t-153.5 -561t-424.5 -209q-272 0 -452 215l184 208q51 -66 124 -102.5
t153 -36.5q121 0 191.5 86t74.5 244q-86 -119 -266 -119z" />
    <glyph glyph-name="one.lnum" horiz-adv-x="1058" 
d="M1014 295v-295h-881v295h287v850q-31 -48 -143.5 -112t-190.5 -64v301q93 0 180.5 65.5t119.5 96t34 34.5h334v-1171h260z" />
    <glyph glyph-name="q.alt" horiz-adv-x="1306" 
d="M651 256q125 0 217 145v228q-25 80 -95 134t-132 54q-115 0 -185.5 -84.5t-70.5 -203.5q0 -118 70.5 -195.5t195.5 -77.5zM911 1075h285v-1513h-328v612q-110 -194 -352 -194q-202 0 -333.5 161.5t-131.5 397.5t142.5 396.5t365.5 160.5t352 -197v176z" />
    <glyph glyph-name="seven.lnum" horiz-adv-x="1181" 
d="M70 1157v299h1128l-717 -1454h-370l571 1155h-612z" />
    <glyph glyph-name="six.lnum" horiz-adv-x="1243" 
d="M854 487q0 93 -67 158.5t-159 65.5t-158.5 -64.5t-66.5 -158.5t67.5 -163t158.5 -69t158 69t67 162zM657 969q218 0 363 -139t145 -346q0 -208 -153.5 -356t-394.5 -148t-385 182t-144 533t152 561t424 210t452 -215l-184 -209q-51 66 -123 103t-152 37
q-121 0 -191.5 -86t-74.5 -244q87 117 266 117z" />
    <glyph glyph-name="t.alt" horiz-adv-x="792" 
d="M190 0v895h-161v295h161v309h336v-309h248v-295h-248v-895h-336z" />
    <glyph glyph-name="three.lnum" horiz-adv-x="1202" 
d="M706 324q66 41 66 125q0 167 -399 167h-68v273h66q254 0 309 61.5t55 102.5q0 72 -53.5 102.5t-112.5 30.5q-109 0 -183.5 -46.5t-109.5 -105.5l-208 242q115 139 272.5 168t247.5 29t185 -31t203.5 -113t108.5 -256q0 -121 -73.5 -198.5t-196.5 -104.5
q134 -24 215.5 -128.5t81.5 -228.5q0 -219 -166 -325t-395 -106q-351 0 -471 262l170 223q36 -108 128.5 -146t176.5 -38q85 0 151 41z" />
    <glyph glyph-name="two.lnum" horiz-adv-x="1273" 
d="M84 0q0 293 77 443.5t290 244.5q166 73 225 118.5t89 92.5t30 122t-48.5 117t-112.5 42q-107 0 -198 -51t-145 -111l-203 217q126 149 298.5 192t277.5 43q244 0 373.5 -121.5t129.5 -346.5t-126 -309.5t-224 -134.5t-177 -112.5t-79 -150.5h608v-295h-1085z" />
    <glyph glyph-name="u.alt" horiz-adv-x="1253" 
d="M430 459q0 -203 158 -203q59 0 119.5 37t107.5 119v663h328v-1075h-314v166q-57 -98 -158.5 -142t-211.5 -44q-188 0 -272.5 105t-84.5 302v688h328v-616z" />
    <glyph glyph-name="w.alt" horiz-adv-x="1806" 
d="M1077 0l-176 563l-174 -563h-354l-367 1075h338l219 -686l187 686h307l184 -686l221 686h336l-364 -1075h-357z" />
    <glyph glyph-name="y.alt" horiz-adv-x="1116" 
d="M1112 1075l-491 -1511h-381l11 28q36 95 60.5 156.5t43 109.5t33.5 87t24 55l-410 1075h338l250 -794l215 794h307z" />
    <glyph glyph-name="zero.lnum" horiz-adv-x="1449" 
d="M498 412.5q78 -133.5 227 -133.5t226 136.5t77 305.5q0 168 -81 301t-226 133q-146 0 -223.5 -136.5t-77.5 -304.5t78 -301.5zM720 -20q-155 0 -275.5 68.5t-201.5 176t-122 238.5t-41 258t45 259t128 237.5t202.5 171t274.5 65.5t274.5 -70.5t201.5 -179t123 -238.5
t41 -256t-45 -258.5t-129 -236.5t-202.5 -169.5t-273.5 -65.5z" />
    </font>
</defs>
</svg>
